  0
SECTION
  2
HEADER
  9
$ACADVER
  1
AC1015
  9
$ACADMAINTVER
 70
           6
  9
$DWGCODEPAGE
  3
ANSI_1252
  9
$INSBASE
 10
0.0
 20
0.0
 30
0.0
  9
$EXTMIN
 10
1.000000000000E+20
 20
1.000000000000E+20
 30
1.000000000000E+20
  9
$EXTMAX
 10
-1.000000000000E+20
 20
-1.000000000000E+20
 30
-1.000000000000E+20
  9
$LIMMIN
 10
1.108313
 20
-6.619597
  9
$LIMMAX
 10
15.108313
 20
5.380403
  9
$ORTHOMODE
 70
           0
  9
$REGENMODE
 70
           1
  9
$FILLMODE
 70
           1
  9
$QTEXTMODE
 70
           0
  9
$MIRRTEXT
 70
           1
  9
$LTSCALE
 40
1.0
  9
$ATTMODE
 70
           1
  9
$TEXTSIZE
 40
0.5
  9
$TRACEWID
 40
1.0
  9
$TEXTSTYLE
  7
STANDARD
  9
$CLAYER
  8
0
  9
$CELTYPE
  6
Continuous
  9
$CECOLOR
 62
          30
  9
$CELTSCALE
 40
1.0
  9
$DISPSILH
 70
           0
  9
$DIMSCALE
 40
1.0
  9
$DIMASZ
 40
0.125
  9
$DIMEXO
 40
0.0625
  9
$DIMDLI
 40
0.375
  9
$DIMRND
 40
0.0001
  9
$DIMDLE
 40
0.0
  9
$DIMEXE
 40
0.125
  9
$DIMTP
 40
0.0
  9
$DIMTM
 40
0.0
  9
$DIMTXT
 40
0.11666666664
  9
$DIMCEN
 40
0.09
  9
$DIMTSZ
 40
0.0
  9
$DIMTOL
 70
           0
  9
$DIMLIM
 70
           0
  9
$DIMTIH
 70
           1
  9
$DIMTOH
 70
           1
  9
$DIMSE1
 70
           0
  9
$DIMSE2
 70
           0
  9
$DIMTAD
 70
           1
  9
$DIMZIN
 70
           0
  9
$DIMBLK
  1

  9
$DIMASO
 70
           0
  9
$DIMSHO
 70
           1
  9
$DIMPOST
  1
<>in
  9
$DIMAPOST
  1
<>
  9
$DIMALT
 70
           0
  9
$DIMALTD
 70
           2
  9
$DIMALTF
 40
1.0
  9
$DIMLFAC
 40
1.0
  9
$DIMTOFL
 70
           1
  9
$DIMTVP
 40
0.0
  9
$DIMTIX
 70
           1
  9
$DIMSOXD
 70
           0
  9
$DIMSAH
 70
           0
  9
$DIMBLK1
  1

  9
$DIMBLK2
  1

  9
$DIMSTYLE
  2
STANDARD
  9
$DIMCLRD
 70
           7
  9
$DIMCLRE
 70
           7
  9
$DIMCLRT
 70
           7
  9
$DIMTFAC
 40
1.0
  9
$DIMGAP
 40
0.0625
  9
$DIMJUST
 70
           0
  9
$DIMSD1
 70
           0
  9
$DIMSD2
 70
           0
  9
$DIMTOLJ
 70
           1
  9
$DIMTZIN
 70
           0
  9
$DIMALTZ
 70
           0
  9
$DIMALTTZ
 70
           0
  9
$DIMUPT
 70
           0
  9
$DIMDEC
 70
           4
  9
$DIMTDEC
 70
           4
  9
$DIMALTU
 70
           2
  9
$DIMALTTD
 70
           2
  9
$DIMTXSTY
  7
STANDARD
  9
$DIMAUNIT
 70
           0
  9
$DIMADEC
 70
           4
  9
$DIMALTRND
 40
0.0
  9
$DIMAZIN
 70
           0
  9
$DIMDSEP
 70
           0
  9
$DIMATFIT
 70
           0
  9
$DIMFRAC
 70
           0
  9
$DIMLDRBLK
  1

  9
$DIMLUNIT
 70
           5
  9
$DIMLWD
 70
           0
  9
$DIMLWE
 70
           0
  9
$DIMTMOVE
 70
           0
  9
$LUNITS
 70
           2
  9
$LUPREC
 70
           2
  9
$SKETCHINC
 40
1.0
  9
$FILLETRAD
 40
0.0236097105
  9
$AUNITS
 70
           0
  9
$AUPREC
 70
           2
  9
$MENU
  1
acad
  9
$ELEVATION
 40
0.0
  9
$PELEVATION
 40
0.0
  9
$THICKNESS
 40
0.0
  9
$LIMCHECK
 70
           0
  9
$CHAMFERA
 40
0.0
  9
$CHAMFERB
 40
0.0
  9
$CHAMFERC
 40
0.0
  9
$CHAMFERD
 40
0.0
  9
$SKPOLY
 70
           0
  9
$TDCREATE
 40
0.000000000
  9
$TDUCREATE
 40
0.000000000
  9
$TDUPDATE
 40
0.000000000
  9
$TDUUPDATE
 40
0.000000000
  9
$TDINDWG
 40
0.0000000000
  9
$TDUSRTIMER
 40
0.0000000000
  9
$USRTIMER
 70
           1
  9
$ANGBASE
 50
0.0
  9
$ANGDIR
 70
           0
  9
$PDMODE
 70
           0
  9
$PDSIZE
 40
0.0
  9
$PLINEWID
 40
0.0
  9
$SPLFRAME
 70
           0
  9
$SPLINETYPE
 70
           6
  9
$SPLINESEGS
 70
          20
  9
$HANDSEED
  5
DD
  9
$SURFTAB1
 70
           6
  9
$SURFTAB2
 70
           6
  9
$SURFTYPE
 70
           6
  9
$SURFU
 70
           6
  9
$SURFV
 70
           6
  9
$UCSBASE
  2

  9
$UCSNAME
  2

  9
$UCSORG
 10
0.0
 20
0.0
 30
0.0
  9
$UCSXDIR
 10
1.0
 20
0.0
 30
0.0
  9
$UCSYDIR
 10
0.0
 20
1.0
 30
0.0
  9
$UCSORTHOREF
  2

  9
$UCSORTHOVIEW
 70
           0
  9
$UCSORGTOP
 10
0.0
 20
0.0
 30
0.0
  9
$UCSORGBOTTOM
 10
0.0
 20
0.0
 30
0.0
  9
$UCSORGLEFT
 10
0.0
 20
0.0
 30
0.0
  9
$UCSORGRIGHT
 10
0.0
 20
0.0
 30
0.0
  9
$UCSORGFRONT
 10
0.0
 20
0.0
 30
0.0
  9
$UCSORGBACK
 10
0.0
 20
0.0
 30
0.0
  9
$PUCSBASE
  2

  9
$PUCSNAME
  2

  9
$PUCSORG
 10
0.0
 20
0.0
 30
0.0
  9
$PUCSXDIR
 10
1.0
 20
0.0
 30
0.0
  9
$PUCSYDIR
 10
0.0
 20
1.0
 30
0.0
  9
$PUCSORTHOREF
  2

  9
$PUCSORTHOVIEW
 70
           0
  9
$PUCSORGTOP
 10
0.0
 20
0.0
 30
0.0
  9
$PUCSORGBOTTOM
 10
0.0
 20
0.0
 30
0.0
  9
$PUCSORGLEFT
 10
0.0
 20
0.0
 30
0.0
  9
$PUCSORGRIGHT
 10
0.0
 20
0.0
 30
0.0
  9
$PUCSORGFRONT
 10
0.0
 20
0.0
 30
0.0
  9
$PUCSORGBACK
 10
0.0
 20
0.0
 30
0.0
  9
$USERI1
 70
           0
  9
$USERI2
 70
           0
  9
$USERI3
 70
           0
  9
$USERI4
 70
           0
  9
$USERI5
 70
           0
  9
$USERR1
 40
0.0
  9
$USERR2
 40
0.0
  9
$USERR3
 40
0.0
  9
$USERR4
 40
0.0
  9
$USERR5
 40
0.0
  9
$WORLDVIEW
 70
           1
  9
$SHADEDGE
 70
           3
  9
$SHADEDIF
 70
          70
  9
$TILEMODE
 70
           0
  9
$MAXACTVP
 70
          16
  9
$PINSBASE
 10
0.0
 20
0.0
 30
0.0
  9
$PLIMCHECK
 70
           0
  9
$PEXTMIN
 10
1.25
 20
-1.25
 30
0.0
  9
$PEXTMAX
 10
9.75
 20
9.75
 30
0.0
  9
$PLIMMIN
 10
1.25
 20
-1.25
  9
$PLIMMAX
 10
9.75
 20
9.75
  9
$UNITMODE
 70
           0
  9
$VISRETAIN
 70
           0
  9
$PLINEGEN
 70
           1
  9
$PSLTSCALE
 70
           1
  9
$TREEDEPTH
 70
        3020
  9
$CMLSTYLE
  2
STANDARD
  9
$CMLJUST
 70
           0
  9
$CMLSCALE
 40
1.0
  9
$PROXYGRAPHICS
 70
           0
  9
$MEASUREMENT
 70
           0
  9
$CELWEIGHT
370
           0
  9
$ENDCAPS
280
           0
  9
$JOINSTYLE
280
           0
  9
$LWDISPLAY
290
           0
  9
$INSUNITS
 70
           0
  9
$HYPERLINKBASE
  1

  9
$STYLESHEET
  1

  9
$XEDIT
290
           1
  9
$CEPSNTYPE
380
           0
  9
$PSTYLEMODE
290
           1
  9
$FINGERPRINTGUID
  2

  9
$VERSIONGUID
  2

  9
$EXTNAMES
290
           1
  9
$PSVPSCALE
 40
0.0
  0
ENDSEC
  0
SECTION
  2
CLASSES
  0
CLASS
  1
LWPOLYLINE
  2
AcDbPolyline
  3
AutoCAD 2000
 90
        0
280
           0
281
           1
  0
CLASS
  1
IMAGE
  2
AcDbRasterImage
  3
ISM
 90
    32895
280
           0
281
           1
  0
CLASS
  1
OLE2FRAME
  2
AcDbOle2Frame
  3
AutoCAD 2000
 90
    32768
280
           0
281
           1
  0
CLASS
  1
HATCH
  2
AcDbHatch
  3
AutoCAD 2000
 90
        0
280
           0
281
           1
  0
CLASS
  1
DICTIONARYVAR
  2
AcDbDictionaryVar
  3
AutoCAD 2000
 90
    32768
280
           0
281
           0
  0
CLASS
  1
RASTERVARIABLES
  2
AcDbRasterVariables
  3
ISM
 90
    32768
280
           0
281
           0
  0
CLASS
  1
IMAGEDEF
  2
AcDbRasterImageDef
  3
ISM
 90
    32768
280
           0
281
           0
  0
CLASS
  1
IMAGEDEF_REACTOR
  2
AcDbRasterImageDefReactor
  3
ISM
 90
    32769
280
           0
281
           0
  0
CLASS
  1
IDBUFFER
  2
AcDbIdBuffer
  3
AutoCAD 2000
 90
    32768
280
           0
281
           0
  0
CLASS
  1
SPATIAL_FILTER
  2
AcDbSpatialFilter
  3
AutoCAD 2000
 90
    32768
280
           0
281
           0
  0
CLASS
  1
XRECORD
  2
AcDbXrecord
  3
AutoCAD 2000
 90
    32768
280
           0
281
           0
  0
CLASS
  1
SORTENTSTABLE
  2
AcDbSortentsTable
  3
AutoCAD 2000
 90
    32768
280
           0
281
           0
  0
CLASS
  1
LAYER_INDEX
  2
AcDbLayerIndex
  3
AutoCAD 2000
 90
    32768
280
           0
281
           0
  0
CLASS
  1
SPATIAL_INDEX
  2
AcDbSpatialIndex
  3
AutoCAD 2000
 90
    32768
280
           0
281
           0
  0
CLASS
  1
OBJECT_PTR
  2
CAseDLPNTableRecord
  3
"ASE-LPNTableRecord"
 90
    32769
280
           0
281
           0
  0
CLASS
  1
LAYOUT
  2
AcDbLayout
  3
AutoCAD 2000
 90
        0
280
           0
281
           0
  0
CLASS
  1
PLOTSETTINGS
  2
AcDbPlotSettings
  3
AutoCAD 2000
 90
    32768
280
           0
281
           0
  0
CLASS
  1
ACDBDICTIONARYWDFLT
  2
AcDbDictionaryWithDefault
  3
AutoCAD 2000
 90
        0
280
           0
281
           0
  0
CLASS
  1
ACDBPLACEHOLDER
  2
AcDbPlaceHolder
  3
AutoCAD 2000
 90
        0
280
           0
281
           0
  0
ENDSEC
  0
SECTION
  2
TABLES
  0
TABLE
  2
VPORT
  5
7
100
AcDbSymbolTable
 70
           1
  0
VPORT
  5
15
100
AcDbSymbolTableRecord
100
AcDbViewportTableRecord
  2
*ACTIVE
 70
           0
 10
0.0
 20
0.0
 11
1.0
 21
1.0
 12
6.3400526373
 22
5.7001280224
 13
0.0
 23
0.0
 14
0.5
 24
0.5
 15
0.5
 25
0.5
 16
0.0
 26
0.0
 36
1.0
 17
0.0
 27
0.0
 37
0.0
 40
6.565450848663
 41
1.277845777234
 42
50.0
 43
0.0
 44
0.0
 50
0.0
 51
0.0
 71
           0
 72
         100
 73
           1
 74
           1
 75
           0
 76
           0
 77
           0
 78
           0
281
           0
 65
           0
110
0.0
120
0.0
130
0.0
111
1.0
121
0.0
131
0.0
112
0.0
122
1.0
132
0.0
345
0
346
0
 79
           0
146
0.0
  0
ENDTAB
  0
TABLE
  2
LTYPE
  5
4
100
AcDbSymbolTable
 70
          15
  0
LTYPE
  5
11
100
AcDbSymbolTableRecord
100
AcDbLinetypeTableRecord
  2
ByBlock
 70
          64
  3

 72
          65
 73
           0
 40
0.0
  0
LTYPE
  5
12
100
AcDbSymbolTableRecord
100
AcDbLinetypeTableRecord
  2
ByLayer
 70
          64
  3

 72
          65
 73
           0
 40
0.0
  0
LTYPE
  5
13
100
AcDbSymbolTableRecord
100
AcDbLinetypeTableRecord
  2
Continuous
 70
          64
  3
Solid line
 72
          65
 73
           0
 40
0.0
  0
LTYPE
  5
24
100
AcDbSymbolTableRecord
100
AcDbLinetypeTableRecord
  2
BORDER
 70
           0
  3
BORDER
 72
          65
 73
           6
 40
1.75
 49
0.5
 74
           0
 49
-0.25
 74
           0
 49
0.5
 74
           0
 49
-0.25
 74
           0
 49
0.0
 74
           0
 49
-0.25
 74
           0
  0
LTYPE
  5
25
100
AcDbSymbolTableRecord
100
AcDbLinetypeTableRecord
  2
CENTER
 70
           0
  3
CENTER
 72
          65
 73
           4
 40
2.0
 49
1.25
 74
           0
 49
-0.25
 74
           0
 49
0.25
 74
           0
 49
-0.25
 74
           0
  0
LTYPE
  5
26
100
AcDbSymbolTableRecord
100
AcDbLinetypeTableRecord
  2
DASHDOT
 70
           0
  3
DASHDOT
 72
          65
 73
           4
 40
1.0
 49
0.5
 74
           0
 49
-0.25
 74
           0
 49
0.0
 74
           0
 49
-0.25
 74
           0
  0
LTYPE
  5
27
100
AcDbSymbolTableRecord
100
AcDbLinetypeTableRecord
  2
DASHED
 70
           0
  3
DASHED
 72
          65
 73
           2
 40
0.75
 49
0.5
 74
           0
 49
-0.25
 74
           0
  0
LTYPE
  5
28
100
AcDbSymbolTableRecord
100
AcDbLinetypeTableRecord
  2
DIVIDE
 70
           0
  3
DIVIDE
 72
          65
 73
           6
 40
1.25
 49
0.5
 74
           0
 49
-0.25
 74
           0
 49
0.0
 74
           0
 49
-0.25
 74
           0
 49
0.0
 74
           0
 49
-0.25
 74
           0
  0
LTYPE
  5
29
100
AcDbSymbolTableRecord
100
AcDbLinetypeTableRecord
  2
DOT
 70
           0
  3
DOT
 72
          65
 73
           2
 40
0.25
 49
0.0
 74
           0
 49
-0.25
 74
           0
  0
LTYPE
  5
2A
100
AcDbSymbolTableRecord
100
AcDbLinetypeTableRecord
  2
HIDDEN
 70
           0
  3
HIDDEN
 72
          65
 73
           2
 40
0.375
 49
0.25
 74
           0
 49
-0.125
 74
           0
  0
LTYPE
  5
2B
100
AcDbSymbolTableRecord
100
AcDbLinetypeTableRecord
  2
PHANTOM
 70
           0
  3
PHANTOM
 72
          65
 73
           6
 40
2.5
 49
1.25
 74
           0
 49
-0.25
 74
           0
 49
0.25
 74
           0
 49
-0.25
 74
           0
 49
0.25
 74
           0
 49
-0.25
 74
           0
  0
LTYPE
  5
2C
100
AcDbSymbolTableRecord
100
AcDbLinetypeTableRecord
  2
$INVISIBLE
 70
           0
  3
$INVISIBLE
 72
          65
 73
           2
 40
200.0
 49
-100.0
 74
           0
 49
-100.0
 74
           0
  0
LTYPE
  5
2D
100
AcDbSymbolTableRecord
100
AcDbLinetypeTableRecord
  2
$SNAPEXT
 70
           0
  3
$SNAPEXT
 72
          65
 73
           2
 40
0.04
 49
0.02
 74
           0
 49
-0.02
 74
           0
  0
LTYPE
  5
2E
100
AcDbSymbolTableRecord
100
AcDbLinetypeTableRecord
  2
$CONSTRUCTION
 70
           0
  3
$CONSTRUCTION
 72
          65
 73
           4
 40
0.3
 49
0.2
 74
           0
 49
-0.05
 74
           0
 49
0.0
 74
           0
 49
-0.05
 74
           0
  0
LTYPE
  5
2F
100
AcDbSymbolTableRecord
100
AcDbLinetypeTableRecord
  2
$AUXILIARY
 70
           0
  3
$AUXILIARY
 72
          65
 73
           2
 40
0.1
 49
0.05
 74
           0
 49
-0.05
 74
           0
  0
ENDTAB
  0
TABLE
  2
LAYER
  5
2
100
AcDbSymbolTable
 70
           5
  0
LAYER
  5
14
100
AcDbSymbolTableRecord
100
AcDbLayerTableRecord
  2
0
 70
           0
 62
           7
  6
Continuous
290
           1
370
           0
390
0
1001
TCAD
1000
TCW_LAYER_ORDER
1002
{
1071
        0
1002
}
  0
LAYER
  5
30
100
AcDbSymbolTableRecord
100
AcDbLayerTableRecord
  2
$CONSTRUCTION
 70
           0
 62
           9
  6
$CONSTRUCTION
290
           1
370
           0
390
0
1001
TCAD
1000
TCW_LAYER_ORDER
1002
{
1071
        0
1002
}
  0
LAYER
  5
31
100
AcDbSymbolTableRecord
100
AcDbLayerTableRecord
  2
LAYER_1
 70
           0
 62
           7
  6
Continuous
290
           1
370
           0
390
0
1001
TCAD
1000
TCW_LAYER_ORDER
1002
{
1071
        0
1002
}
  0
LAYER
  5
32
100
AcDbSymbolTableRecord
100
AcDbLayerTableRecord
  2
LAYER_2
 70
           0
 62
           7
  6
Continuous
290
           1
370
           0
390
0
1001
TCAD
1000
TCW_LAYER_ORDER
1002
{
1071
        0
1002
}
  0
LAYER
  5
33
100
AcDbSymbolTableRecord
100
AcDbLayerTableRecord
  2
7
 70
           0
 62
           7
  6
Continuous
290
           1
370
           0
390
0
1001
TCAD
1000
TCW_LAYER_ORDER
1002
{
1071
        0
1002
}
  0
ENDTAB
  0
TABLE
  2
STYLE
  5
3
100
AcDbSymbolTable
 70
           4
  0
STYLE
  5
17
100
AcDbSymbolTableRecord
100
AcDbTextStyleTableRecord
  2
STANDARD
 70
           0
 40
0.0
 41
1.0
 50
0.0
 71
           0
 42
0.15000000596
  3
ARIAL.TTF
  4

1001
ACAD
1000
Arial
1071
       34
  0
STYLE
  5
35
100
AcDbSymbolTableRecord
100
AcDbTextStyleTableRecord
  2
_TCW_TXTSTY_1
 70
           0
 40
0.0
 41
1.0
 50
0.0
 71
           0
 42
0.600000023842
  3
TIMES.TTF
  4

1001
ACAD
1000
Times New Roman
1071
      290
  0
STYLE
  5
38
100
AcDbSymbolTableRecord
100
AcDbTextStyleTableRecord
  2
_TCW_TXTSTY_2
 70
           0
 40
0.0
 41
1.22
 50
0.0
 71
           0
 42
0.08749999851
  3
TIMES.TTF
  4

1001
ACAD
1000
Times New Roman
1071
      290
  0
STYLE
  5
C1
100
AcDbSymbolTableRecord
100
AcDbTextStyleTableRecord
  2
_TCW_TXTSTY_3
 70
           0
 40
0.0
 41
1.0
 50
0.0
 71
           0
 42
0.058333333582
  3

  4

1001
ACAD
1000
AvantGarde Bk BT
1071
 16777506
  0
ENDTAB
  0
TABLE
  2
VIEW
  5
5
100
AcDbSymbolTable
 70
           1
  0
VIEW
  5
34
100
AcDbSymbolTableRecord
100
AcDbViewTableRecord
  2
View_0
 70
           0
 40
8.267716535433
 10
5.846456692913
 20
4.133858267717
 41
11.692913385827
 11
0.0
 21
0.0
 31
1.0
 12
0.0
 22
0.0
 32
0.0
 42
92.090489446729
 43
0.0
 44
0.0
 50
0.0
 71
           0
281
           0
 72
           0
110
0.0
120
0.0
130
0.0
111
1.0
121
0.0
131
0.0
112
0.0
122
1.0
132
0.0
  0
ENDTAB
  0
TABLE
  2
UCS
  5
6
100
AcDbSymbolTable
 70
           0
  0
ENDTAB
  0
TABLE
  2
APPID
  5
8
100
AcDbSymbolTable
 70
           2
  0
APPID
  5
16
100
AcDbSymbolTableRecord
100
AcDbRegAppTableRecord
  2
ACAD
 70
           0
  0
APPID
  5
23
100
AcDbSymbolTableRecord
100
AcDbRegAppTableRecord
  2
TCAD
 70
           0
  0
ENDTAB
  0
TABLE
  2
DIMSTYLE
  5
9
100
AcDbSymbolTable
 70
           1
100
AcDbDimStyleTable
 71
           0
  0
DIMSTYLE
105
18
100
AcDbSymbolTableRecord
100
AcDbDimStyleTableRecord
  2
STANDARD
 70
           0
  3
<>in
  4
<>
 40
1.0
 41
0.125
 42
0.0625
 43
0.375
 44
0.125
 45
0.0001
 46
0.0
 47
0.0
 48
0.0
 71
           0
 72
           0
 73
           1
 74
           1
 75
           0
 76
           0
 77
           1
 78
           0
 79
           0
140
0.11666666664
141
0.09
142
0.0
143
1.0
144
1.0
145
0.0
146
1.0
147
0.0625
148
0.01
170
           0
171
           2
172
           1
173
           0
174
           1
175
           0
176
           7
177
           7
178
           7
179
           4
271
           4
272
           4
273
           2
274
           2
275
           0
276
           0
277
           5
278
          46
279
           0
280
           0
281
           0
282
           0
283
           1
284
           0
285
           0
286
           0
288
           0
340
35
341
0
342
0
343
0
344
0
371
          -2
372
          -2
  0
ENDTAB
  0
TABLE
  2
BLOCK_RECORD
  5
1
100
AcDbSymbolTable
 70
           2
  0
BLOCK_RECORD
  5
A
100
AcDbSymbolTableRecord
100
AcDbBlockTableRecord
  2
*MODEL_SPACE
340
36
  0
BLOCK_RECORD
  5
B
100
AcDbSymbolTableRecord
100
AcDbBlockTableRecord
  2
*PAPER_SPACE
340
DC
  0
BLOCK_RECORD
  5
B2
100
AcDbSymbolTableRecord
100
AcDbBlockTableRecord
  2
*D0
340
0
  0
BLOCK_RECORD
  5
CA
100
AcDbSymbolTableRecord
100
AcDbBlockTableRecord
  2
*D1
340
0
  0
ENDTAB
  0
ENDSEC
  0
SECTION
  2
BLOCKS
  0
BLOCK
  5
D
100
AcDbEntity
  8
0
100
AcDbBlockBegin
  2
*MODEL_SPACE
 70
           0
 10
0.0
 20
0.0
 30
0.0
  3
*MODEL_SPACE
  1

  0
ENDBLK
  5
E
100
AcDbEntity
  8
0
100
AcDbBlockEnd
  0
BLOCK
  5
F
100
AcDbEntity
 67
           1
  8
0
100
AcDbBlockBegin
  2
*PAPER_SPACE
 70
           0
 10
0.0
 20
0.0
 30
0.0
  3
*PAPER_SPACE
  1

  0
ENDBLK
  5
10
100
AcDbEntity
 67
           1
  8
0
100
AcDbBlockEnd
  0
BLOCK
  5
B3
100
AcDbEntity
  8
0
100
AcDbBlockBegin
  2
*D0
 70
           1
 10
0.0
 20
0.0
 30
0.0
  3
*D0
  1

  0
LINE
  5
B4
100
AcDbEntity
  8
0
370
           0
  6
Continuous
 62
           7
100
AcDbLine
 10
4.453958686523
 20
5.158456519828
 30
0.0
 11
4.453958686523
 21
4.574414449823
 31
0.0
1001
TCAD
1000
TCW_ATTRIBUTE
1002
{
1000
<2 7/16>
1002
}
  0
LINE
  5
B5
100
AcDbEntity
  8
0
370
           0
  6
Continuous
 62
           7
100
AcDbLine
 10
6.881826943444
 20
5.149464415173
 30
0.0
 11
6.881826943444
 21
4.574414449823
 31
0.0
1001
TCAD
1000
TCW_ATTRIBUTE
1002
{
1000
<2 7/16>
1002
}
  0
LWPOLYLINE
  5
B6
100
AcDbEntity
  8
0
370
           0
  6
Continuous
 62
           7
100
AcDbPolyline
 90
        4
 70
           0
 10
4.578958686523
 20
4.699414449823
 10
4.578958686523
 20
4.699414449823
 10
4.578958686523
 20
4.699414449823
 10
5.667892814984
 20
4.699414449823
1001
TCAD
1000
TCW_ATTRIBUTE
1002
{
1000
<2 7/16>
1002
}
  0
LWPOLYLINE
  5
B7
100
AcDbEntity
  8
0
370
           0
  6
Continuous
 62
           7
100
AcDbPolyline
 90
        4
 70
           0
 10
6.756826943444
 20
4.699414449823
 10
6.756826943444
 20
4.699414449823
 10
6.756826943444
 20
4.699414449823
 10
5.667892814984
 20
4.699414449823
1001
TCAD
1000
TCW_ATTRIBUTE
1002
{
1000
<2 7/16>
1002
}
  0
LWPOLYLINE
  5
BA
100
AcDbEntity
  8
0
370
           0
  6
Continuous
 62
           7
100
AcDbPolyline
 90
        4
 70
           0
 10
4.453958686523
 20
4.699414449823
 40
0.0
 41
0.0
 10
4.578958686523
 20
4.683164449823
 40
0.0
 41
0.0
 10
4.578958686523
 20
4.715664449823
 40
0.0
 41
0.0
 10
4.453958686523
 20
4.699414449823
 40
0.0
 41
0.0
1001
TCAD
1000
TCW_ATTRIBUTE
1002
{
1000
<2 7/16>
1002
}
  0
HATCH
  5
B8
100
AcDbEntity
  8
0
  6
Continuous
 62
           7
100
AcDbHatch
 10
0.0
 20
0.0
 30
0.0
210
0.0
220
0.0
230
1.0
  2
SOLID
 70
           1
 71
           1
 91
        1
 92
        3
 72
           0
 73
           1
 93
        3
 10
4.4539586865228982
 20
4.6994144498227168
 10
4.5789586865228982
 20
4.6831644498227165
 10
4.5789586865228982
 20
4.7156644498227172
 97
        1
330
B9
 75
           0
 76
           0
 98
        0
1001
TCAD
1000
TCW_ATTRIBUTE
1002
{
1000
<2 7/16>
1002
}
  0
LWPOLYLINE
  5
BD
100
AcDbEntity
  8
0
370
           0
  6
Continuous
 62
           7
100
AcDbPolyline
 90
        4
 70
           0
 10
6.881826943444
 20
4.699414449823
 40
0.0
 41
0.0
 10
6.756826943444
 20
4.715664449823
 40
0.0
 41
0.0
 10
6.756826943444
 20
4.683164449823
 40
0.0
 41
0.0
 10
6.881826943444
 20
4.699414449823
 40
0.0
 41
0.0
1001
TCAD
1000
TCW_ATTRIBUTE
1002
{
1000
<2 7/16>
1002
}
  0
HATCH
  5
BB
100
AcDbEntity
  8
0
  6
Continuous
 62
           7
100
AcDbHatch
 10
0.0
 20
0.0
 30
0.0
210
0.0
220
0.0
230
1.0
  2
SOLID
 70
           1
 71
           1
 91
        1
 92
        3
 72
           0
 73
           1
 93
        3
 10
6.8818269434443025
 20
4.6994144498227168
 10
6.7568269434443025
 20
4.7156644498227172
 10
6.7568269434443025
 20
4.6831644498227165
 97
        1
330
BC
 75
           0
 76
           0
 98
        0
1001
TCAD
1000
TCW_ATTRIBUTE
1002
{
1000
<2 7/16>
1002
}
  0
MTEXT
  5
BE
100
AcDbEntity
  8
0
  6
Continuous
 62
           7
100
AcDbMText
 10
5.667892814984
 20
4.859136673701
 30
0.0
 40
0.116666668653
 41
0.0
 71
           5
 72
           1
  1
\A1;2 7/16{}in
  7
_TCW_TXTSTY_1
 73
           1
 44
1.0
1001
TCAD
1000
TCW_REFPOINT
1002
{
1010
5.667892814984
1020
4.859136673701
1030
0.0
1002
}
1000
TCW_ATTRIBUTE
1002
{
1000
<2 7/16>
1002
}
  0
ENDBLK
  5
BF
100
AcDbEntity
  8
0
100
AcDbBlockEnd
  0
BLOCK
  5
CB
100
AcDbEntity
  8
0
100
AcDbBlockBegin
  2
*D1
 70
           1
 10
0.0
 20
0.0
 30
0.0
  3
*D1
  1

  0
LINE
  5
CC
100
AcDbEntity
  8
0
370
           0
  6
Continuous
 62
           7
100
AcDbLine
 10
4.380898979012
 20
5.966177193186
 30
0.0
 11
3.765266125581
 21
5.966177193186
 31
0.0
1001
TCAD
1000
TCW_ATTRIBUTE
1002
{
1000
<11/16>
1002
}
  0
LINE
  5
CD
100
AcDbEntity
  8
0
370
           0
  6
Continuous
 62
           7
100
AcDbLine
 10
4.380898979012
 20
5.257771199925
 30
0.0
 11
3.765266125581
 21
5.257771199925
 31
0.0
1001
TCAD
1000
TCW_ATTRIBUTE
1002
{
1000
<11/16>
1002
}
  0
LWPOLYLINE
  5
CE
100
AcDbEntity
  8
0
370
           0
  6
Continuous
 62
           7
100
AcDbPolyline
 90
        4
 70
           0
 10
3.890266125581
 20
5.841177193186
 10
3.890266125581
 20
5.841177193186
 10
3.890266125581
 20
5.841177193186
 10
3.890266125581
 20
5.771696420434
1001
TCAD
1000
TCW_ATTRIBUTE
1002
{
1000
<11/16>
1002
}
  0
LWPOLYLINE
  5
CF
100
AcDbEntity
  8
0
370
           0
  6
Continuous
 62
           7
100
AcDbPolyline
 90
        4
 70
           0
 10
3.890266125581
 20
5.382771199925
 10
3.890266125581
 20
5.382771199925
 10
3.890266125581
 20
5.382771199925
 10
3.890266125581
 20
5.452251972678
1001
TCAD
1000
TCW_ATTRIBUTE
1002
{
1000
<11/16>
1002
}
  0
LWPOLYLINE
  5
D2
100
AcDbEntity
  8
0
370
           0
  6
Continuous
 62
           7
100
AcDbPolyline
 90
        4
 70
           0
 10
3.890266125581
 20
5.966177193186
 40
0.0
 41
0.0
 10
3.874016125581
 20
5.841177193186
 40
0.0
 41
0.0
 10
3.906516125581
 20
5.841177193186
 40
0.0
 41
0.0
 10
3.890266125581
 20
5.966177193186
 40
0.0
 41
0.0
1001
TCAD
1000
TCW_ATTRIBUTE
1002
{
1000
<11/16>
1002
}
  0
HATCH
  5
D0
100
AcDbEntity
  8
0
  6
Continuous
 62
           7
100
AcDbHatch
 10
0.0
 20
0.0
 30
0.0
210
0.0
220
0.0
230
1.0
  2
SOLID
 70
           1
 71
           1
 91
        1
 92
        3
 72
           0
 73
           1
 93
        3
 10
3.8902661255813418
 20
5.9661771931862502
 10
3.8740161255813419
 20
5.8411771931862502
 10
3.9065161255813416
 20
5.8411771931862502
 97
        1
330
D1
 75
           0
 76
           0
 98
        0
1001
TCAD
1000
TCW_ATTRIBUTE
1002
{
1000
<11/16>
1002
}
  0
LWPOLYLINE
  5
D5
100
AcDbEntity
  8
0
370
           0
  6
Continuous
 62
           7
100
AcDbPolyline
 90
        4
 70
           0
 10
3.890266125581
 20
5.257771199925
 40
0.0
 41
0.0
 10
3.906516125581
 20
5.382771199925
 40
0.0
 41
0.0
 10
3.874016125581
 20
5.382771199925
 40
0.0
 41
0.0
 10
3.890266125581
 20
5.257771199925
 40
0.0
 41
0.0
1001
TCAD
1000
TCW_ATTRIBUTE
1002
{
1000
<11/16>
1002
}
  0
HATCH
  5
D3
100
AcDbEntity
  8
0
  6
Continuous
 62
           7
100
AcDbHatch
 10
0.0
 20
0.0
 30
0.0
210
0.0
220
0.0
230
1.0
  2
SOLID
 70
           1
 71
           1
 91
        1
 92
        3
 72
           0
 73
           1
 93
        3
 10
3.8902661255813409
 20
5.257771199925096
 10
3.9065161255813408
 20
5.382771199925096
 10
3.874016125581341
 20
5.382771199925096
 97
        1
330
D4
 75
           0
 76
           0
 98
        0
1001
TCAD
1000
TCW_ATTRIBUTE
1002
{
1000
<11/16>
1002
}
  0
MTEXT
  5
D6
100
AcDbEntity
  8
0
  6
Continuous
 62
           7
100
AcDbMText
 10
3.890266125581
 20
5.611974196556
 30
0.0
 40
0.116666668653
 41
0.0
 71
           5
 72
           1
  1
\A1;11/16{}in
  7
_TCW_TXTSTY_1
 73
           1
 44
1.0
1001
TCAD
1000
TCW_REFPOINT
1002
{
1010
3.890266125581
1020
5.611974196556
1030
0.0
1002
}
1000
TCW_ATTRIBUTE
1002
{
1000
<11/16>
1002
}
  0
ENDBLK
  5
D7
100
AcDbEntity
  8
0
100
AcDbBlockEnd
  0
ENDSEC
  0
SECTION
  2
ENTITIES
  0
VIEWPORT
  5
37
100
AcDbEntity
 67
           1
  8
0
100
AcDbViewport
 10
6.3400526373
 20
5.7001280224
 30
0.0
 40
8.3896336426
 41
4.5320207458
 68
           1
 69
           1
 12
6.3400526373
 22
5.7001280224
 13
0.0
 23
0.0
 14
0.5
 24
0.5
 15
0.5
 25
0.5
 16
0.0
 26
0.0
 36
1.0
 17
0.0
 27
0.0
 37
0.0
 42
50.0
 43
0.0
 44
0.0
 45
4.5320207458
 50
0.0
 51
0.0
 72
         100
 90
    32800
340
0
  1

281
           0
 71
           0
 74
           1
110
0.0
120
0.0
130
0.0
111
1.0
121
0.0
131
0.0
112
0.0
122
1.0
132
0.0
345
0
346
0
 79
           0
146
0.0
  0
MTEXT
  5
39
100
AcDbEntity
 67
           1
  8
0
  6
Continuous
 62
           7
100
AcDbMText
 10
4.836989596406
 20
2.032190829515
 30
0.0
 40
0.08749999702
 41
1.350353
 71
           1
 72
           1
  1
{Saroyan Lumber Co.\P(800) 624-9309}
  7
_TCW_TXTSTY_2
 73
           1
 44
1.0
1001
TCAD
1000
TCW_REFPOINT
1002
{
1010
4.836989596406
1020
1.893207163842
1030
0.0
1002
}
1000
TCW40_TEXT
1002
{
1000
Times New Roman
1070
           0
1070
         257
1002
}
  0
TEXT
  5
3A
100
AcDbEntity
 67
           1
  8
0
  6
Continuous
 62
           7
100
AcDbText
 10
4.80972128244
 20
2.259449044656
 30
0.0
 40
0.10000000298
  1
Modified 6/13/07
  7
_TCW_TXTSTY_1
 11
4.80972128244
 21
2.359449047636
 31
0.0
100
AcDbText
 73
           3
1001
TCAD
1000
TCW_REFPOINT
1002
{
1010
4.80972128244
1020
2.392782047636
1030
0.0
1002
}
1000
TCW40_TEXT
1002
{
1000
Times New Roman
1070
           0
1070
         257
1002
}
  0
LINE
  5
3B
100
AcDbEntity
 67
           1
  8
0
370
          35
  6
Continuous
 62
           7
100
AcDbLine
 10
4.816294417816
 20
5.257771199925
 30
0.0
 11
4.443398979012
 21
5.257771199925
 31
0.0
1001
ACAD
1000
TCW40_DEV_WIDTH
1002
{
1040
0.014000000432
1002
}
1001
TCAD
1000
TCW_REFPOINT
1002
{
1010
4.629846698414
1020
5.257771199925
1030
0.0
1002
}
1000
TCW_CUSTOM_DATA
1002
{
1000
#$AUX@_ToolInfo Properties
1070
           8
1000
Modify^JMeet2Lines@Meet2Lines
1002
}
  0
LINE
  5
3C
100
AcDbEntity
 67
           1
  8
0
370
          35
  6
Continuous
 62
           7
100
AcDbLine
 10
4.443398979012
 20
5.257771199925
 30
0.0
 11
4.443398979012
 21
5.966177193186
 31
0.0
1001
ACAD
1000
TCW40_DEV_WIDTH
1002
{
1040
0.014000000432
1002
}
1001
TCAD
1000
TCW_REFPOINT
1002
{
1010
4.443398979012
1020
5.593280417498
1030
0.0
1002
}
1000
TCW_CUSTOM_DATA
1002
{
1000
#$AUX@_ToolInfo Properties
1070
           8
1000
Modify^JMeet2Lines@Meet2Lines
1002
}
  0
CIRCLE
  5
3D
100
AcDbEntity
 67
           1
  8
0
370
          35
  6
Continuous
 62
          30
100
AcDbCircle
 10
0.0
 20
0.0
 30
0.0
 40
0.0
1001
ACAD
1000
TCW40_DEV_WIDTH
1002
{
1040
0.014000000432
1002
}
1001
TCAD
1000
TCW_CUSTOM_DATA
1002
{
1000
#$AUX@_ToolInfo Properties
1070
           8
1000
Insert^JArc^JTriplePoint132@Arc TriplePoint132
1002
}
  0
CIRCLE
  5
3E
100
AcDbEntity
 67
           1
  8
0
370
          35
  6
Continuous
 62
          30
100
AcDbCircle
 10
0.0
 20
0.0
 30
0.0
 40
0.0
1001
ACAD
1000
TCW40_DEV_WIDTH
1002
{
1040
0.014000000432
1002
}
1001
TCAD
1000
TCW_CUSTOM_DATA
1002
{
1000
#$AUX@_ToolInfo Properties
1070
           8
1000
Insert^JArc^JTriplePoint132@Arc TriplePoint132
1002
}
  0
CIRCLE
  5
3F
100
AcDbEntity
 67
           1
  8
0
370
          35
  6
Continuous
 62
          30
100
AcDbCircle
 10
0.0
 20
0.0
 30
0.0
 40
0.0
1001
ACAD
1000
TCW40_DEV_WIDTH
1002
{
1040
0.014000000432
1002
}
1001
TCAD
1000
TCW_CUSTOM_DATA
1002
{
1000
#$AUX@_ToolInfo Properties
1070
           8
1000
Insert^JArc^JTriplePoint132@Arc TriplePoint132
1002
}
  0
CIRCLE
  5
40
100
AcDbEntity
 67
           1
  8
0
370
          35
  6
Continuous
 62
          30
100
AcDbCircle
 10
0.0
 20
0.0
 30
0.0
 40
0.0
1001
ACAD
1000
TCW40_DEV_WIDTH
1002
{
1040
0.014000000432
1002
}
1001
TCAD
1000
TCW_CUSTOM_DATA
1002
{
1000
#$AUX@_ToolInfo Properties
1070
           8
1000
Insert^JArc^JTriplePoint132@Arc TriplePoint132
1002
}
  0
CIRCLE
  5
41
100
AcDbEntity
 67
           1
  8
0
370
          35
  6
Continuous
 62
          30
100
AcDbCircle
 10
0.0
 20
0.0
 30
0.0
 40
0.0
1001
ACAD
1000
TCW40_DEV_WIDTH
1002
{
1040
0.014000000432
1002
}
1001
TCAD
1000
TCW_CUSTOM_DATA
1002
{
1000
#$AUX@_ToolInfo Properties
1070
           8
1000
Insert^JArc^JTriplePoint132@Arc TriplePoint132
1002
}
  0
CIRCLE
  5
42
100
AcDbEntity
 67
           1
  8
0
370
          35
  6
Continuous
 62
          30
100
AcDbCircle
 10
0.0
 20
0.0
 30
0.0
 40
0.0
1001
ACAD
1000
TCW40_DEV_WIDTH
1002
{
1040
0.014000000432
1002
}
1001
TCAD
1000
TCW_CUSTOM_DATA
1002
{
1000
#$AUX@_ToolInfo Properties
1070
           8
1000
Insert^JArc^JTriplePoint132@Arc TriplePoint132
1002
}
  0
CIRCLE
  5
43
100
AcDbEntity
 67
           1
  8
0
370
          35
  6
Continuous
 62
          30
100
AcDbCircle
 10
0.0
 20
0.0
 30
0.0
 40
0.0
1001
ACAD
1000
TCW40_DEV_WIDTH
1002
{
1040
0.014000000432
1002
}
1001
TCAD
1000
TCW_CUSTOM_DATA
1002
{
1000
#$AUX@_ToolInfo Properties
1070
           8
1000
Insert^JArc^JTriplePoint132@Arc TriplePoint132
1002
}
  0
CIRCLE
  5
44
100
AcDbEntity
 67
           1
  8
0
370
          35
  6
Continuous
 62
          30
100
AcDbCircle
 10
0.0
 20
0.0
 30
0.0
 40
0.0
1001
ACAD
1000
TCW40_DEV_WIDTH
1002
{
1040
0.014000000432
1002
}
1001
TCAD
1000
TCW_CUSTOM_DATA
1002
{
1000
#$AUX@_ToolInfo Properties
1070
           8
1000
Insert^JArc^JTriplePoint132@Arc TriplePoint132
1002
}
  0
CIRCLE
  5
45
100
AcDbEntity
 67
           1
  8
0
370
          35
  6
Continuous
 62
          30
100
AcDbCircle
 10
0.0
 20
0.0
 30
0.0
 40
0.0
1001
ACAD
1000
TCW40_DEV_WIDTH
1002
{
1040
0.014000000432
1002
}
1001
TCAD
1000
TCW_CUSTOM_DATA
1002
{
1000
#$AUX@_ToolInfo Properties
1070
           8
1000
Insert^JArc^JTriplePoint132@Arc TriplePoint132
1002
}
  0
CIRCLE
  5
46
100
AcDbEntity
 67
           1
  8
0
370
          35
  6
Continuous
 62
          30
100
AcDbCircle
 10
0.0
 20
0.0
 30
0.0
 40
0.0
1001
ACAD
1000
TCW40_DEV_WIDTH
1002
{
1040
0.014000000432
1002
}
1001
TCAD
1000
TCW_CUSTOM_DATA
1002
{
1000
#$AUX@_ToolInfo Properties
1070
           8
1000
Insert^JArc^JTriplePoint132@Arc TriplePoint132
1002
}
  0
CIRCLE
  5
47
100
AcDbEntity
 67
           1
  8
0
370
          35
  6
Continuous
 62
          30
100
AcDbCircle
 10
0.0
 20
0.0
 30
0.0
 40
0.0
1001
ACAD
1000
TCW40_DEV_WIDTH
1002
{
1040
0.014000000432
1002
}
1001
TCAD
1000
TCW_CUSTOM_DATA
1002
{
1000
#$AUX@_ToolInfo Properties
1070
           8
1000
Insert^JArc^JTriplePoint132@Arc TriplePoint132
1002
}
  0
CIRCLE
  5
48
100
AcDbEntity
 67
           1
  8
0
370
          35
  6
Continuous
 62
          30
100
AcDbCircle
 10
0.0
 20
0.0
 30
0.0
 40
0.0
1001
ACAD
1000
TCW40_DEV_WIDTH
1002
{
1040
0.014000000432
1002
}
1001
TCAD
1000
TCW_CUSTOM_DATA
1002
{
1000
#$AUX@_ToolInfo Properties
1070
           8
1000
Insert^JArc^JTriplePoint132@Arc TriplePoint132
1002
}
  0
CIRCLE
  5
49
100
AcDbEntity
 67
           1
  8
0
370
          35
  6
Continuous
 62
          30
100
AcDbCircle
 10
0.0
 20
0.0
 30
0.0
 40
0.0
1001
ACAD
1000
TCW40_DEV_WIDTH
1002
{
1040
0.014000000432
1002
}
1001
TCAD
1000
TCW_CUSTOM_DATA
1002
{
1000
#$AUX@_ToolInfo Properties
1070
           8
1000
Insert^JArc^JTriplePoint132@Arc TriplePoint132
1002
}
  0
CIRCLE
  5
4A
100
AcDbEntity
 67
           1
  8
0
370
          35
  6
Continuous
 62
          30
100
AcDbCircle
 10
0.0
 20
0.0
 30
0.0
 40
0.0
1001
ACAD
1000
TCW40_DEV_WIDTH
1002
{
1040
0.014000000432
1002
}
1001
TCAD
1000
TCW_CUSTOM_DATA
1002
{
1000
#$AUX@_ToolInfo Properties
1070
           8
1000
Insert^JArc^JTriplePoint132@Arc TriplePoint132
1002
}
  0
CIRCLE
  5
4B
100
AcDbEntity
 67
           1
  8
0
370
          35
  6
Continuous
 62
          30
100
AcDbCircle
 10
0.0
 20
0.0
 30
0.0
 40
0.0
1001
ACAD
1000
TCW40_DEV_WIDTH
1002
{
1040
0.014000000432
1002
}
1001
TCAD
1000
TCW_CUSTOM_DATA
1002
{
1000
#$AUX@_ToolInfo Properties
1070
           8
1000
Insert^JArc^JTriplePoint132@Arc TriplePoint132
1002
}
  0
CIRCLE
  5
4C
100
AcDbEntity
 67
           1
  8
0
370
          35
  6
Continuous
 62
          30
100
AcDbCircle
 10
0.0
 20
0.0
 30
0.0
 40
0.0
1001
ACAD
1000
TCW40_DEV_WIDTH
1002
{
1040
0.014000000432
1002
}
1001
TCAD
1000
TCW_CUSTOM_DATA
1002
{
1000
#$AUX@_ToolInfo Properties
1070
           8
1000
Insert^JArc^JTriplePoint132@Arc TriplePoint132
1002
}
  0
CIRCLE
  5
4D
100
AcDbEntity
 67
           1
  8
0
370
          35
  6
Continuous
 62
          30
100
AcDbCircle
 10
0.0
 20
0.0
 30
0.0
 40
0.0
1001
ACAD
1000
TCW40_DEV_WIDTH
1002
{
1040
0.014000000432
1002
}
1001
TCAD
1000
TCW_CUSTOM_DATA
1002
{
1000
#$AUX@_ToolInfo Properties
1070
           8
1000
Insert^JArc^JTriplePoint132@Arc TriplePoint132
1002
}
  0
CIRCLE
  5
4E
100
AcDbEntity
 67
           1
  8
0
370
          35
  6
Continuous
 62
          30
100
AcDbCircle
 10
0.0
 20
0.0
 30
0.0
 40
0.0
1001
ACAD
1000
TCW40_DEV_WIDTH
1002
{
1040
0.014000000432
1002
}
1001
TCAD
1000
TCW_CUSTOM_DATA
1002
{
1000
#$AUX@_ToolInfo Properties
1070
           8
1000
Insert^JArc^JTriplePoint132@Arc TriplePoint132
1002
}
  0
CIRCLE
  5
4F
100
AcDbEntity
 67
           1
  8
0
370
          35
  6
Continuous
 62
          30
100
AcDbCircle
 10
0.0
 20
0.0
 30
0.0
 40
0.0
1001
ACAD
1000
TCW40_DEV_WIDTH
1002
{
1040
0.014000000432
1002
}
1001
TCAD
1000
TCW_CUSTOM_DATA
1002
{
1000
#$AUX@_ToolInfo Properties
1070
           8
1000
Insert^JArc^JTriplePoint132@Arc TriplePoint132
1002
}
  0
CIRCLE
  5
50
100
AcDbEntity
 67
           1
  8
0
370
          35
  6
Continuous
 62
          30
100
AcDbCircle
 10
0.0
 20
0.0
 30
0.0
 40
0.0
1001
ACAD
1000
TCW40_DEV_WIDTH
1002
{
1040
0.014000000432
1002
}
1001
TCAD
1000
TCW_CUSTOM_DATA
1002
{
1000
#$AUX@_ToolInfo Properties
1070
           8
1000
Insert^JArc^JTriplePoint132@Arc TriplePoint132
1002
}
  0
CIRCLE
  5
51
100
AcDbEntity
 67
           1
  8
0
370
          35
  6
Continuous
 62
          30
100
AcDbCircle
 10
0.0
 20
0.0
 30
0.0
 40
0.0
1001
ACAD
1000
TCW40_DEV_WIDTH
1002
{
1040
0.014000000432
1002
}
1001
TCAD
1000
TCW_CUSTOM_DATA
1002
{
1000
#$AUX@_ToolInfo Properties
1070
           8
1000
Insert^JArc^JTriplePoint132@Arc TriplePoint132
1002
}
  0
CIRCLE
  5
52
100
AcDbEntity
 67
           1
  8
0
370
          35
  6
Continuous
 62
          30
100
AcDbCircle
 10
0.0
 20
0.0
 30
0.0
 40
0.0
1001
ACAD
1000
TCW40_DEV_WIDTH
1002
{
1040
0.014000000432
1002
}
1001
TCAD
1000
TCW_CUSTOM_DATA
1002
{
1000
#$AUX@_ToolInfo Properties
1070
           8
1000
Insert^JArc^JTriplePoint132@Arc TriplePoint132
1002
}
  0
CIRCLE
  5
53
100
AcDbEntity
 67
           1
  8
0
370
          35
  6
Continuous
 62
          30
100
AcDbCircle
 10
0.0
 20
0.0
 30
0.0
 40
0.0
1001
ACAD
1000
TCW40_DEV_WIDTH
1002
{
1040
0.014000000432
1002
}
1001
TCAD
1000
TCW_CUSTOM_DATA
1002
{
1000
#$AUX@_ToolInfo Properties
1070
           8
1000
Insert^JArc^JTriplePoint132@Arc TriplePoint132
1002
}
  0
CIRCLE
  5
54
100
AcDbEntity
 67
           1
  8
0
370
          35
  6
Continuous
 62
          30
100
AcDbCircle
 10
0.0
 20
0.0
 30
0.0
 40
0.0
1001
ACAD
1000
TCW40_DEV_WIDTH
1002
{
1040
0.014000000432
1002
}
1001
TCAD
1000
TCW_CUSTOM_DATA
1002
{
1000
#$AUX@_ToolInfo Properties
1070
           8
1000
Insert^JArc^JTriplePoint132@Arc TriplePoint132
1002
}
  0
CIRCLE
  5
55
100
AcDbEntity
 67
           1
  8
0
370
          35
  6
Continuous
 62
          30
100
AcDbCircle
 10
0.0
 20
0.0
 30
0.0
 40
0.0
1001
ACAD
1000
TCW40_DEV_WIDTH
1002
{
1040
0.014000000432
1002
}
1001
TCAD
1000
TCW_CUSTOM_DATA
1002
{
1000
#$AUX@_ToolInfo Properties
1070
           8
1000
Insert^JArc^JTriplePoint132@Arc TriplePoint132
1002
}
  0
CIRCLE
  5
56
100
AcDbEntity
 67
           1
  8
0
370
          35
  6
Continuous
 62
          30
100
AcDbCircle
 10
0.0
 20
0.0
 30
0.0
 40
0.0
1001
ACAD
1000
TCW40_DEV_WIDTH
1002
{
1040
0.014000000432
1002
}
1001
TCAD
1000
TCW_CUSTOM_DATA
1002
{
1000
#$AUX@_ToolInfo Properties
1070
           8
1000
Insert^JArc^JTriplePoint132@Arc TriplePoint132
1002
}
  0
CIRCLE
  5
57
100
AcDbEntity
 67
           1
  8
0
370
          35
  6
Continuous
 62
          30
100
AcDbCircle
 10
0.0
 20
0.0
 30
0.0
 40
0.0
1001
ACAD
1000
TCW40_DEV_WIDTH
1002
{
1040
0.014000000432
1002
}
1001
TCAD
1000
TCW_CUSTOM_DATA
1002
{
1000
#$AUX@_ToolInfo Properties
1070
           8
1000
Insert^JArc^JTriplePoint132@Arc TriplePoint132
1002
}
  0
CIRCLE
  5
58
100
AcDbEntity
 67
           1
  8
0
370
          35
  6
Continuous
 62
          30
100
AcDbCircle
 10
0.0
 20
0.0
 30
0.0
 40
0.0
1001
ACAD
1000
TCW40_DEV_WIDTH
1002
{
1040
0.014000000432
1002
}
1001
TCAD
1000
TCW_CUSTOM_DATA
1002
{
1000
#$AUX@_ToolInfo Properties
1070
           8
1000
Insert^JArc^JTriplePoint132@Arc TriplePoint132
1002
}
  0
CIRCLE
  5
59
100
AcDbEntity
 67
           1
  8
0
370
          35
  6
Continuous
 62
          30
100
AcDbCircle
 10
0.0
 20
0.0
 30
0.0
 40
0.0
1001
ACAD
1000
TCW40_DEV_WIDTH
1002
{
1040
0.014000000432
1002
}
1001
TCAD
1000
TCW_CUSTOM_DATA
1002
{
1000
#$AUX@_ToolInfo Properties
1070
           8
1000
Insert^JArc^JTriplePoint132@Arc TriplePoint132
1002
}
  0
CIRCLE
  5
5A
100
AcDbEntity
 67
           1
  8
0
370
          35
  6
Continuous
 62
          30
100
AcDbCircle
 10
0.0
 20
0.0
 30
0.0
 40
0.0
1001
ACAD
1000
TCW40_DEV_WIDTH
1002
{
1040
0.014000000432
1002
}
1001
TCAD
1000
TCW_CUSTOM_DATA
1002
{
1000
#$AUX@_ToolInfo Properties
1070
           8
1000
Insert^JArc^JTriplePoint132@Arc TriplePoint132
1002
}
  0
CIRCLE
  5
5B
100
AcDbEntity
 67
           1
  8
0
370
          35
  6
Continuous
 62
          30
100
AcDbCircle
 10
0.0
 20
0.0
 30
0.0
 40
0.0
1001
ACAD
1000
TCW40_DEV_WIDTH
1002
{
1040
0.014000000432
1002
}
1001
TCAD
1000
TCW_CUSTOM_DATA
1002
{
1000
#$AUX@_ToolInfo Properties
1070
           8
1000
Insert^JArc^JTriplePoint132@Arc TriplePoint132
1002
}
  0
CIRCLE
  5
5C
100
AcDbEntity
 67
           1
  8
0
370
          35
  6
Continuous
 62
          30
100
AcDbCircle
 10
0.0
 20
0.0
 30
0.0
 40
0.0
1001
ACAD
1000
TCW40_DEV_WIDTH
1002
{
1040
0.014000000432
1002
}
1001
TCAD
1000
TCW_CUSTOM_DATA
1002
{
1000
#$AUX@_ToolInfo Properties
1070
           8
1000
Insert^JArc^JTriplePoint132@Arc TriplePoint132
1002
}
  0
CIRCLE
  5
5D
100
AcDbEntity
 67
           1
  8
0
370
          35
  6
Continuous
 62
          30
100
AcDbCircle
 10
0.0
 20
0.0
 30
0.0
 40
0.0
1001
ACAD
1000
TCW40_DEV_WIDTH
1002
{
1040
0.014000000432
1002
}
1001
TCAD
1000
TCW_CUSTOM_DATA
1002
{
1000
#$AUX@_ToolInfo Properties
1070
           8
1000
Insert^JArc^JTriplePoint132@Arc TriplePoint132
1002
}
  0
CIRCLE
  5
5E
100
AcDbEntity
 67
           1
  8
0
370
          35
  6
Continuous
 62
          30
100
AcDbCircle
 10
0.0
 20
0.0
 30
0.0
 40
0.0
1001
ACAD
1000
TCW40_DEV_WIDTH
1002
{
1040
0.014000000432
1002
}
1001
TCAD
1000
TCW_CUSTOM_DATA
1002
{
1000
#$AUX@_ToolInfo Properties
1070
           8
1000
Insert^JArc^JTriplePoint132@Arc TriplePoint132
1002
}
  0
CIRCLE
  5
5F
100
AcDbEntity
 67
           1
  8
0
370
          35
  6
Continuous
 62
          30
100
AcDbCircle
 10
0.0
 20
0.0
 30
0.0
 40
0.0
1001
ACAD
1000
TCW40_DEV_WIDTH
1002
{
1040
0.014000000432
1002
}
1001
TCAD
1000
TCW_CUSTOM_DATA
1002
{
1000
#$AUX@_ToolInfo Properties
1070
           8
1000
Insert^JArc^JTriplePoint132@Arc TriplePoint132
1002
}
  0
CIRCLE
  5
60
100
AcDbEntity
 67
           1
  8
0
370
          35
  6
Continuous
 62
          30
100
AcDbCircle
 10
0.0
 20
0.0
 30
0.0
 40
0.0
1001
ACAD
1000
TCW40_DEV_WIDTH
1002
{
1040
0.014000000432
1002
}
1001
TCAD
1000
TCW_CUSTOM_DATA
1002
{
1000
#$AUX@_ToolInfo Properties
1070
           8
1000
Insert^JArc^JTriplePoint132@Arc TriplePoint132
1002
}
  0
CIRCLE
  5
61
100
AcDbEntity
 67
           1
  8
0
370
          35
  6
Continuous
 62
          30
100
AcDbCircle
 10
0.0
 20
0.0
 30
0.0
 40
0.0
1001
ACAD
1000
TCW40_DEV_WIDTH
1002
{
1040
0.014000000432
1002
}
1001
TCAD
1000
TCW_CUSTOM_DATA
1002
{
1000
#$AUX@_ToolInfo Properties
1070
           8
1000
Insert^JArc^JTriplePoint132@Arc TriplePoint132
1002
}
  0
CIRCLE
  5
62
100
AcDbEntity
 67
           1
  8
0
370
          35
  6
Continuous
 62
          30
100
AcDbCircle
 10
0.0
 20
0.0
 30
0.0
 40
0.0
1001
ACAD
1000
TCW40_DEV_WIDTH
1002
{
1040
0.014000000432
1002
}
1001
TCAD
1000
TCW_CUSTOM_DATA
1002
{
1000
#$AUX@_ToolInfo Properties
1070
           8
1000
Insert^JArc^JTriplePoint132@Arc TriplePoint132
1002
}
  0
CIRCLE
  5
63
100
AcDbEntity
 67
           1
  8
0
370
          35
  6
Continuous
 62
          30
100
AcDbCircle
 10
0.0
 20
0.0
 30
0.0
 40
0.0
1001
ACAD
1000
TCW40_DEV_WIDTH
1002
{
1040
0.014000000432
1002
}
1001
TCAD
1000
TCW_CUSTOM_DATA
1002
{
1000
#$AUX@_ToolInfo Properties
1070
           8
1000
Insert^JArc^JTriplePoint132@Arc TriplePoint132
1002
}
  0
CIRCLE
  5
64
100
AcDbEntity
 67
           1
  8
0
370
          35
  6
Continuous
 62
          30
100
AcDbCircle
 10
0.0
 20
0.0
 30
0.0
 40
0.0
1001
ACAD
1000
TCW40_DEV_WIDTH
1002
{
1040
0.014000000432
1002
}
1001
TCAD
1000
TCW_CUSTOM_DATA
1002
{
1000
#$AUX@_ToolInfo Properties
1070
           8
1000
Insert^JArc^JTriplePoint132@Arc TriplePoint132
1002
}
  0
CIRCLE
  5
65
100
AcDbEntity
 67
           1
  8
0
370
          35
  6
Continuous
 62
          30
100
AcDbCircle
 10
0.0
 20
0.0
 30
0.0
 40
0.0
1001
ACAD
1000
TCW40_DEV_WIDTH
1002
{
1040
0.014000000432
1002
}
1001
TCAD
1000
TCW_CUSTOM_DATA
1002
{
1000
#$AUX@_ToolInfo Properties
1070
           8
1000
Insert^JArc^JTriplePoint132@Arc TriplePoint132
1002
}
  0
CIRCLE
  5
66
100
AcDbEntity
 67
           1
  8
0
370
          35
  6
Continuous
 62
          30
100
AcDbCircle
 10
0.0
 20
0.0
 30
0.0
 40
0.0
1001
ACAD
1000
TCW40_DEV_WIDTH
1002
{
1040
0.014000000432
1002
}
1001
TCAD
1000
TCW_CUSTOM_DATA
1002
{
1000
#$AUX@_ToolInfo Properties
1070
           8
1000
Insert^JArc^JTriplePoint132@Arc TriplePoint132
1002
}
  0
CIRCLE
  5
67
100
AcDbEntity
 67
           1
  8
0
370
          35
  6
Continuous
 62
          30
100
AcDbCircle
 10
0.0
 20
0.0
 30
0.0
 40
0.0
1001
ACAD
1000
TCW40_DEV_WIDTH
1002
{
1040
0.014000000432
1002
}
1001
TCAD
1000
TCW_CUSTOM_DATA
1002
{
1000
#$AUX@_ToolInfo Properties
1070
           8
1000
Insert^JArc^JTriplePoint132@Arc TriplePoint132
1002
}
  0
CIRCLE
  5
68
100
AcDbEntity
 67
           1
  8
0
370
          35
  6
Continuous
 62
          30
100
AcDbCircle
 10
0.0
 20
0.0
 30
0.0
 40
0.0
1001
ACAD
1000
TCW40_DEV_WIDTH
1002
{
1040
0.014000000432
1002
}
1001
TCAD
1000
TCW_CUSTOM_DATA
1002
{
1000
#$AUX@_ToolInfo Properties
1070
           8
1000
Insert^JArc^JTriplePoint132@Arc TriplePoint132
1002
}
  0
CIRCLE
  5
69
100
AcDbEntity
 67
           1
  8
0
370
          35
  6
Continuous
 62
          30
100
AcDbCircle
 10
0.0
 20
0.0
 30
0.0
 40
0.0
1001
ACAD
1000
TCW40_DEV_WIDTH
1002
{
1040
0.014000000432
1002
}
1001
TCAD
1000
TCW_CUSTOM_DATA
1002
{
1000
#$AUX@_ToolInfo Properties
1070
           8
1000
Insert^JArc^JTriplePoint132@Arc TriplePoint132
1002
}
  0
CIRCLE
  5
6A
100
AcDbEntity
 67
           1
  8
0
370
          35
  6
Continuous
 62
          30
100
AcDbCircle
 10
0.0
 20
0.0
 30
0.0
 40
0.0
1001
ACAD
1000
TCW40_DEV_WIDTH
1002
{
1040
0.014000000432
1002
}
1001
TCAD
1000
TCW_CUSTOM_DATA
1002
{
1000
#$AUX@_ToolInfo Properties
1070
           8
1000
Insert^JArc^JTriplePoint132@Arc TriplePoint132
1002
}
  0
CIRCLE
  5
6B
100
AcDbEntity
 67
           1
  8
0
370
          35
  6
Continuous
 62
          30
100
AcDbCircle
 10
0.0
 20
0.0
 30
0.0
 40
0.0
1001
ACAD
1000
TCW40_DEV_WIDTH
1002
{
1040
0.014000000432
1002
}
1001
TCAD
1000
TCW_CUSTOM_DATA
1002
{
1000
#$AUX@_ToolInfo Properties
1070
           8
1000
Insert^JArc^JTriplePoint132@Arc TriplePoint132
1002
}
  0
CIRCLE
  5
6C
100
AcDbEntity
 67
           1
  8
0
370
          35
  6
Continuous
 62
          30
100
AcDbCircle
 10
0.0
 20
0.0
 30
0.0
 40
0.0
1001
ACAD
1000
TCW40_DEV_WIDTH
1002
{
1040
0.014000000432
1002
}
1001
TCAD
1000
TCW_CUSTOM_DATA
1002
{
1000
#$AUX@_ToolInfo Properties
1070
           8
1000
Insert^JArc^JTriplePoint132@Arc TriplePoint132
1002
}
  0
CIRCLE
  5
6D
100
AcDbEntity
 67
           1
  8
0
370
          35
  6
Continuous
 62
          30
100
AcDbCircle
 10
0.0
 20
0.0
 30
0.0
 40
0.0
1001
ACAD
1000
TCW40_DEV_WIDTH
1002
{
1040
0.014000000432
1002
}
1001
TCAD
1000
TCW_CUSTOM_DATA
1002
{
1000
#$AUX@_ToolInfo Properties
1070
           8
1000
Insert^JArc^JTriplePoint132@Arc TriplePoint132
1002
}
  0
CIRCLE
  5
6E
100
AcDbEntity
 67
           1
  8
0
370
          35
  6
Continuous
 62
          30
100
AcDbCircle
 10
0.0
 20
0.0
 30
0.0
 40
0.0
1001
ACAD
1000
TCW40_DEV_WIDTH
1002
{
1040
0.014000000432
1002
}
1001
TCAD
1000
TCW_CUSTOM_DATA
1002
{
1000
#$AUX@_ToolInfo Properties
1070
           8
1000
Insert^JArc^JTriplePoint132@Arc TriplePoint132
1002
}
  0
CIRCLE
  5
6F
100
AcDbEntity
 67
           1
  8
0
370
          35
  6
Continuous
 62
          30
100
AcDbCircle
 10
0.0
 20
0.0
 30
0.0
 40
0.0
1001
ACAD
1000
TCW40_DEV_WIDTH
1002
{
1040
0.014000000432
1002
}
1001
TCAD
1000
TCW_CUSTOM_DATA
1002
{
1000
#$AUX@_ToolInfo Properties
1070
           8
1000
Insert^JArc^JTriplePoint132@Arc TriplePoint132
1002
}
  0
CIRCLE
  5
70
100
AcDbEntity
 67
           1
  8
0
370
          35
  6
Continuous
 62
          30
100
AcDbCircle
 10
0.0
 20
0.0
 30
0.0
 40
0.0
1001
ACAD
1000
TCW40_DEV_WIDTH
1002
{
1040
0.014000000432
1002
}
1001
TCAD
1000
TCW_CUSTOM_DATA
1002
{
1000
#$AUX@_ToolInfo Properties
1070
           8
1000
Insert^JArc^JTriplePoint132@Arc TriplePoint132
1002
}
  0
CIRCLE
  5
71
100
AcDbEntity
 67
           1
  8
0
370
          35
  6
Continuous
 62
          30
100
AcDbCircle
 10
0.0
 20
0.0
 30
0.0
 40
0.0
1001
ACAD
1000
TCW40_DEV_WIDTH
1002
{
1040
0.014000000432
1002
}
1001
TCAD
1000
TCW_CUSTOM_DATA
1002
{
1000
#$AUX@_ToolInfo Properties
1070
           8
1000
Insert^JArc^JTriplePoint132@Arc TriplePoint132
1002
}
  0
CIRCLE
  5
72
100
AcDbEntity
 67
           1
  8
0
370
          35
  6
Continuous
 62
          30
100
AcDbCircle
 10
0.0
 20
0.0
 30
0.0
 40
0.0
1001
ACAD
1000
TCW40_DEV_WIDTH
1002
{
1040
0.014000000432
1002
}
1001
TCAD
1000
TCW_CUSTOM_DATA
1002
{
1000
#$AUX@_ToolInfo Properties
1070
           8
1000
Insert^JArc^JTriplePoint132@Arc TriplePoint132
1002
}
  0
CIRCLE
  5
73
100
AcDbEntity
 67
           1
  8
0
370
          35
  6
Continuous
 62
          30
100
AcDbCircle
 10
0.0
 20
0.0
 30
0.0
 40
0.0
1001
ACAD
1000
TCW40_DEV_WIDTH
1002
{
1040
0.014000000432
1002
}
1001
TCAD
1000
TCW_CUSTOM_DATA
1002
{
1000
#$AUX@_ToolInfo Properties
1070
           8
1000
Insert^JArc^JTriplePoint132@Arc TriplePoint132
1002
}
  0
CIRCLE
  5
74
100
AcDbEntity
 67
           1
  8
0
370
          35
  6
Continuous
 62
          30
100
AcDbCircle
 10
0.0
 20
0.0
 30
0.0
 40
0.0
1001
ACAD
1000
TCW40_DEV_WIDTH
1002
{
1040
0.014000000432
1002
}
1001
TCAD
1000
TCW_CUSTOM_DATA
1002
{
1000
#$AUX@_ToolInfo Properties
1070
           8
1000
Insert^JArc^JTriplePoint132@Arc TriplePoint132
1002
}
  0
CIRCLE
  5
75
100
AcDbEntity
 67
           1
  8
0
370
          35
  6
Continuous
 62
          30
100
AcDbCircle
 10
0.0
 20
0.0
 30
0.0
 40
0.0
1001
ACAD
1000
TCW40_DEV_WIDTH
1002
{
1040
0.014000000432
1002
}
1001
TCAD
1000
TCW_CUSTOM_DATA
1002
{
1000
#$AUX@_ToolInfo Properties
1070
           8
1000
Insert^JArc^JTriplePoint132@Arc TriplePoint132
1002
}
  0
CIRCLE
  5
76
100
AcDbEntity
 67
           1
  8
0
370
          35
  6
Continuous
 62
          30
100
AcDbCircle
 10
0.0
 20
0.0
 30
0.0
 40
0.0
1001
ACAD
1000
TCW40_DEV_WIDTH
1002
{
1040
0.014000000432
1002
}
1001
TCAD
1000
TCW_CUSTOM_DATA
1002
{
1000
#$AUX@_ToolInfo Properties
1070
           8
1000
Insert^JArc^JTriplePoint132@Arc TriplePoint132
1002
}
  0
CIRCLE
  5
77
100
AcDbEntity
 67
           1
  8
0
370
          35
  6
Continuous
 62
          30
100
AcDbCircle
 10
0.0
 20
0.0
 30
0.0
 40
0.0
1001
ACAD
1000
TCW40_DEV_WIDTH
1002
{
1040
0.014000000432
1002
}
1001
TCAD
1000
TCW_CUSTOM_DATA
1002
{
1000
#$AUX@_ToolInfo Properties
1070
           8
1000
Insert^JArc^JTriplePoint132@Arc TriplePoint132
1002
}
  0
CIRCLE
  5
78
100
AcDbEntity
 67
           1
  8
0
370
          35
  6
Continuous
 62
          30
100
AcDbCircle
 10
0.0
 20
0.0
 30
0.0
 40
0.0
1001
ACAD
1000
TCW40_DEV_WIDTH
1002
{
1040
0.014000000432
1002
}
1001
TCAD
1000
TCW_CUSTOM_DATA
1002
{
1000
#$AUX@_ToolInfo Properties
1070
           8
1000
Insert^JArc^JTriplePoint132@Arc TriplePoint132
1002
}
  0
CIRCLE
  5
79
100
AcDbEntity
 67
           1
  8
0
370
          35
  6
Continuous
 62
          30
100
AcDbCircle
 10
0.0
 20
0.0
 30
0.0
 40
0.0
1001
ACAD
1000
TCW40_DEV_WIDTH
1002
{
1040
0.014000000432
1002
}
1001
TCAD
1000
TCW_CUSTOM_DATA
1002
{
1000
#$AUX@_ToolInfo Properties
1070
           8
1000
Insert^JArc^JTriplePoint132@Arc TriplePoint132
1002
}
  0
CIRCLE
  5
7A
100
AcDbEntity
 67
           1
  8
0
370
          35
  6
Continuous
 62
          30
100
AcDbCircle
 10
0.0
 20
0.0
 30
0.0
 40
0.0
1001
ACAD
1000
TCW40_DEV_WIDTH
1002
{
1040
0.014000000432
1002
}
1001
TCAD
1000
TCW_CUSTOM_DATA
1002
{
1000
#$AUX@_ToolInfo Properties
1070
           8
1000
Insert^JArc^JTriplePoint132@Arc TriplePoint132
1002
}
  0
CIRCLE
  5
7B
100
AcDbEntity
 67
           1
  8
0
370
          35
  6
Continuous
 62
          30
100
AcDbCircle
 10
0.0
 20
0.0
 30
0.0
 40
0.0
1001
ACAD
1000
TCW40_DEV_WIDTH
1002
{
1040
0.014000000432
1002
}
1001
TCAD
1000
TCW_CUSTOM_DATA
1002
{
1000
#$AUX@_ToolInfo Properties
1070
           8
1000
Insert^JArc^JTriplePoint132@Arc TriplePoint132
1002
}
  0
CIRCLE
  5
7C
100
AcDbEntity
 67
           1
  8
0
370
          35
  6
Continuous
 62
          30
100
AcDbCircle
 10
0.0
 20
0.0
 30
0.0
 40
0.0
1001
ACAD
1000
TCW40_DEV_WIDTH
1002
{
1040
0.014000000432
1002
}
1001
TCAD
1000
TCW_CUSTOM_DATA
1002
{
1000
#$AUX@_ToolInfo Properties
1070
           8
1000
Insert^JArc^JTriplePoint132@Arc TriplePoint132
1002
}
  0
CIRCLE
  5
7D
100
AcDbEntity
 67
           1
  8
0
370
          35
  6
Continuous
 62
          30
100
AcDbCircle
 10
0.0
 20
0.0
 30
0.0
 40
0.0
1001
ACAD
1000
TCW40_DEV_WIDTH
1002
{
1040
0.014000000432
1002
}
1001
TCAD
1000
TCW_CUSTOM_DATA
1002
{
1000
#$AUX@_ToolInfo Properties
1070
           8
1000
Insert^JArc^JTriplePoint132@Arc TriplePoint132
1002
}
  0
CIRCLE
  5
7E
100
AcDbEntity
 67
           1
  8
0
370
          35
  6
Continuous
 62
          30
100
AcDbCircle
 10
0.0
 20
0.0
 30
0.0
 40
0.0
1001
ACAD
1000
TCW40_DEV_WIDTH
1002
{
1040
0.014000000432
1002
}
1001
TCAD
1000
TCW_CUSTOM_DATA
1002
{
1000
#$AUX@_ToolInfo Properties
1070
           8
1000
Insert^JArc^JTriplePoint132@Arc TriplePoint132
1002
}
  0
CIRCLE
  5
7F
100
AcDbEntity
 67
           1
  8
0
370
          35
  6
Continuous
 62
          30
100
AcDbCircle
 10
0.0
 20
0.0
 30
0.0
 40
0.0
1001
ACAD
1000
TCW40_DEV_WIDTH
1002
{
1040
0.014000000432
1002
}
1001
TCAD
1000
TCW_CUSTOM_DATA
1002
{
1000
#$AUX@_ToolInfo Properties
1070
           8
1000
Insert^JArc^JTriplePoint132@Arc TriplePoint132
1002
}
  0
CIRCLE
  5
80
100
AcDbEntity
 67
           1
  8
0
370
          35
  6
Continuous
 62
          30
100
AcDbCircle
 10
0.0
 20
0.0
 30
0.0
 40
0.0
1001
ACAD
1000
TCW40_DEV_WIDTH
1002
{
1040
0.014000000432
1002
}
1001
TCAD
1000
TCW_CUSTOM_DATA
1002
{
1000
#$AUX@_ToolInfo Properties
1070
           8
1000
Insert^JArc^JTriplePoint132@Arc TriplePoint132
1002
}
  0
CIRCLE
  5
81
100
AcDbEntity
 67
           1
  8
0
370
          35
  6
Continuous
 62
          30
100
AcDbCircle
 10
0.0
 20
0.0
 30
0.0
 40
0.0
1001
ACAD
1000
TCW40_DEV_WIDTH
1002
{
1040
0.014000000432
1002
}
1001
TCAD
1000
TCW_CUSTOM_DATA
1002
{
1000
#$AUX@_ToolInfo Properties
1070
           8
1000
Insert^JArc^JTriplePoint132@Arc TriplePoint132
1002
}
  0
CIRCLE
  5
82
100
AcDbEntity
 67
           1
  8
0
370
          35
  6
Continuous
 62
          30
100
AcDbCircle
 10
0.0
 20
0.0
 30
0.0
 40
0.0
1001
ACAD
1000
TCW40_DEV_WIDTH
1002
{
1040
0.014000000432
1002
}
1001
TCAD
1000
TCW_CUSTOM_DATA
1002
{
1000
#$AUX@_ToolInfo Properties
1070
           8
1000
Insert^JArc^JTriplePoint132@Arc TriplePoint132
1002
}
  0
CIRCLE
  5
83
100
AcDbEntity
 67
           1
  8
0
370
          35
  6
Continuous
 62
          30
100
AcDbCircle
 10
0.0
 20
0.0
 30
0.0
 40
0.0
1001
ACAD
1000
TCW40_DEV_WIDTH
1002
{
1040
0.014000000432
1002
}
1001
TCAD
1000
TCW_CUSTOM_DATA
1002
{
1000
#$AUX@_ToolInfo Properties
1070
           8
1000
Insert^JArc^JTriplePoint132@Arc TriplePoint132
1002
}
  0
CIRCLE
  5
84
100
AcDbEntity
 67
           1
  8
0
370
          35
  6
Continuous
 62
          30
100
AcDbCircle
 10
0.0
 20
0.0
 30
0.0
 40
0.0
1001
ACAD
1000
TCW40_DEV_WIDTH
1002
{
1040
0.014000000432
1002
}
1001
TCAD
1000
TCW_CUSTOM_DATA
1002
{
1000
#$AUX@_ToolInfo Properties
1070
           8
1000
Insert^JArc^JTriplePoint132@Arc TriplePoint132
1002
}
  0
CIRCLE
  5
85
100
AcDbEntity
 67
           1
  8
0
370
          35
  6
Continuous
 62
          30
100
AcDbCircle
 10
0.0
 20
0.0
 30
0.0
 40
0.0
1001
ACAD
1000
TCW40_DEV_WIDTH
1002
{
1040
0.014000000432
1002
}
1001
TCAD
1000
TCW_CUSTOM_DATA
1002
{
1000
#$AUX@_ToolInfo Properties
1070
           8
1000
Insert^JArc^JTriplePoint132@Arc TriplePoint132
1002
}
  0
CIRCLE
  5
86
100
AcDbEntity
 67
           1
  8
0
370
          35
  6
Continuous
 62
          30
100
AcDbCircle
 10
0.0
 20
0.0
 30
0.0
 40
0.0
1001
ACAD
1000
TCW40_DEV_WIDTH
1002
{
1040
0.014000000432
1002
}
1001
TCAD
1000
TCW_CUSTOM_DATA
1002
{
1000
#$AUX@_ToolInfo Properties
1070
           8
1000
Insert^JArc^JTriplePoint132@Arc TriplePoint132
1002
}
  0
CIRCLE
  5
87
100
AcDbEntity
 67
           1
  8
0
370
          35
  6
Continuous
 62
          30
100
AcDbCircle
 10
0.0
 20
0.0
 30
0.0
 40
0.0
1001
ACAD
1000
TCW40_DEV_WIDTH
1002
{
1040
0.014000000432
1002
}
1001
TCAD
1000
TCW_CUSTOM_DATA
1002
{
1000
#$AUX@_ToolInfo Properties
1070
           8
1000
Insert^JArc^JTriplePoint132@Arc TriplePoint132
1002
}
  0
CIRCLE
  5
88
100
AcDbEntity
 67
           1
  8
0
370
          35
  6
Continuous
 62
          30
100
AcDbCircle
 10
0.0
 20
0.0
 30
0.0
 40
0.0
1001
ACAD
1000
TCW40_DEV_WIDTH
1002
{
1040
0.014000000432
1002
}
1001
TCAD
1000
TCW_CUSTOM_DATA
1002
{
1000
#$AUX@_ToolInfo Properties
1070
           8
1000
Insert^JArc^JTriplePoint132@Arc TriplePoint132
1002
}
  0
CIRCLE
  5
89
100
AcDbEntity
 67
           1
  8
0
370
          35
  6
Continuous
 62
          30
100
AcDbCircle
 10
0.0
 20
0.0
 30
0.0
 40
0.0
1001
ACAD
1000
TCW40_DEV_WIDTH
1002
{
1040
0.014000000432
1002
}
1001
TCAD
1000
TCW_CUSTOM_DATA
1002
{
1000
#$AUX@_ToolInfo Properties
1070
           8
1000
Insert^JArc^JTriplePoint132@Arc TriplePoint132
1002
}
  0
CIRCLE
  5
8A
100
AcDbEntity
 67
           1
  8
0
370
          35
  6
Continuous
 62
          30
100
AcDbCircle
 10
0.0
 20
0.0
 30
0.0
 40
0.0
1001
ACAD
1000
TCW40_DEV_WIDTH
1002
{
1040
0.014000000432
1002
}
1001
TCAD
1000
TCW_CUSTOM_DATA
1002
{
1000
#$AUX@_ToolInfo Properties
1070
           8
1000
Insert^JArc^JTriplePoint132@Arc TriplePoint132
1002
}
  0
CIRCLE
  5
8B
100
AcDbEntity
 67
           1
  8
0
370
          35
  6
Continuous
 62
          30
100
AcDbCircle
 10
0.0
 20
0.0
 30
0.0
 40
0.0
1001
ACAD
1000
TCW40_DEV_WIDTH
1002
{
1040
0.014000000432
1002
}
1001
TCAD
1000
TCW_CUSTOM_DATA
1002
{
1000
#$AUX@_ToolInfo Properties
1070
           8
1000
Insert^JArc^JTriplePoint132@Arc TriplePoint132
1002
}
  0
CIRCLE
  5
8C
100
AcDbEntity
 67
           1
  8
0
370
          35
  6
Continuous
 62
          30
100
AcDbCircle
 10
0.0
 20
0.0
 30
0.0
 40
0.0
1001
ACAD
1000
TCW40_DEV_WIDTH
1002
{
1040
0.014000000432
1002
}
1001
TCAD
1000
TCW_CUSTOM_DATA
1002
{
1000
#$AUX@_ToolInfo Properties
1070
           8
1000
Insert^JArc^JTriplePoint132@Arc TriplePoint132
1002
}
  0
CIRCLE
  5
8D
100
AcDbEntity
 67
           1
  8
0
370
          35
  6
Continuous
 62
          30
100
AcDbCircle
 10
0.0
 20
0.0
 30
0.0
 40
0.0
1001
ACAD
1000
TCW40_DEV_WIDTH
1002
{
1040
0.014000000432
1002
}
1001
TCAD
1000
TCW_CUSTOM_DATA
1002
{
1000
#$AUX@_ToolInfo Properties
1070
           8
1000
Insert^JArc^JTriplePoint132@Arc TriplePoint132
1002
}
  0
CIRCLE
  5
8E
100
AcDbEntity
 67
           1
  8
0
370
          35
  6
Continuous
 62
          30
100
AcDbCircle
 10
0.0
 20
0.0
 30
0.0
 40
0.0
1001
ACAD
1000
TCW40_DEV_WIDTH
1002
{
1040
0.014000000432
1002
}
1001
TCAD
1000
TCW_CUSTOM_DATA
1002
{
1000
#$AUX@_ToolInfo Properties
1070
           8
1000
Insert^JArc^JTriplePoint132@Arc TriplePoint132
1002
}
  0
CIRCLE
  5
8F
100
AcDbEntity
 67
           1
  8
0
370
          35
  6
Continuous
 62
          30
100
AcDbCircle
 10
0.0
 20
0.0
 30
0.0
 40
0.0
1001
ACAD
1000
TCW40_DEV_WIDTH
1002
{
1040
0.014000000432
1002
}
1001
TCAD
1000
TCW_CUSTOM_DATA
1002
{
1000
#$AUX@_ToolInfo Properties
1070
           8
1000
Insert^JArc^JTriplePoint132@Arc TriplePoint132
1002
}
  0
CIRCLE
  5
90
100
AcDbEntity
 67
           1
  8
0
370
          35
  6
Continuous
 62
          30
100
AcDbCircle
 10
0.0
 20
0.0
 30
0.0
 40
0.0
1001
ACAD
1000
TCW40_DEV_WIDTH
1002
{
1040
0.014000000432
1002
}
1001
TCAD
1000
TCW_CUSTOM_DATA
1002
{
1000
#$AUX@_ToolInfo Properties
1070
           8
1000
Insert^JArc^JTriplePoint132@Arc TriplePoint132
1002
}
  0
CIRCLE
  5
91
100
AcDbEntity
 67
           1
  8
0
370
          35
  6
Continuous
 62
          30
100
AcDbCircle
 10
0.0
 20
0.0
 30
0.0
 40
0.0
1001
ACAD
1000
TCW40_DEV_WIDTH
1002
{
1040
0.014000000432
1002
}
1001
TCAD
1000
TCW_CUSTOM_DATA
1002
{
1000
#$AUX@_ToolInfo Properties
1070
           8
1000
Insert^JArc^JTriplePoint132@Arc TriplePoint132
1002
}
  0
CIRCLE
  5
92
100
AcDbEntity
 67
           1
  8
0
370
          35
  6
Continuous
 62
          30
100
AcDbCircle
 10
0.0
 20
0.0
 30
0.0
 40
0.0
1001
ACAD
1000
TCW40_DEV_WIDTH
1002
{
1040
0.014000000432
1002
}
1001
TCAD
1000
TCW_CUSTOM_DATA
1002
{
1000
#$AUX@_ToolInfo Properties
1070
           8
1000
Insert^JArc^JTriplePoint132@Arc TriplePoint132
1002
}
  0
CIRCLE
  5
93
100
AcDbEntity
 67
           1
  8
0
370
          35
  6
Continuous
 62
          30
100
AcDbCircle
 10
0.0
 20
0.0
 30
0.0
 40
0.0
1001
ACAD
1000
TCW40_DEV_WIDTH
1002
{
1040
0.014000000432
1002
}
1001
TCAD
1000
TCW_CUSTOM_DATA
1002
{
1000
#$AUX@_ToolInfo Properties
1070
           8
1000
Insert^JArc^JTriplePoint132@Arc TriplePoint132
1002
}
  0
CIRCLE
  5
94
100
AcDbEntity
 67
           1
  8
0
370
          35
  6
Continuous
 62
          30
100
AcDbCircle
 10
0.0
 20
0.0
 30
0.0
 40
0.0
1001
ACAD
1000
TCW40_DEV_WIDTH
1002
{
1040
0.014000000432
1002
}
1001
TCAD
1000
TCW_CUSTOM_DATA
1002
{
1000
#$AUX@_ToolInfo Properties
1070
           8
1000
Insert^JArc^JTriplePoint132@Arc TriplePoint132
1002
}
  0
CIRCLE
  5
95
100
AcDbEntity
 67
           1
  8
0
370
          35
  6
Continuous
 62
          30
100
AcDbCircle
 10
0.0
 20
0.0
 30
0.0
 40
0.0
1001
ACAD
1000
TCW40_DEV_WIDTH
1002
{
1040
0.014000000432
1002
}
1001
TCAD
1000
TCW_CUSTOM_DATA
1002
{
1000
#$AUX@_ToolInfo Properties
1070
           8
1000
Insert^JArc^JTriplePoint132@Arc TriplePoint132
1002
}
  0
CIRCLE
  5
96
100
AcDbEntity
 67
           1
  8
0
370
          35
  6
Continuous
 62
          30
100
AcDbCircle
 10
0.0
 20
0.0
 30
0.0
 40
0.0
1001
ACAD
1000
TCW40_DEV_WIDTH
1002
{
1040
0.014000000432
1002
}
1001
TCAD
1000
TCW_CUSTOM_DATA
1002
{
1000
#$AUX@_ToolInfo Properties
1070
           8
1000
Insert^JArc^JTriplePoint132@Arc TriplePoint132
1002
}
  0
CIRCLE
  5
97
100
AcDbEntity
 67
           1
  8
0
370
          35
  6
Continuous
 62
          30
100
AcDbCircle
 10
0.0
 20
0.0
 30
0.0
 40
0.0
1001
ACAD
1000
TCW40_DEV_WIDTH
1002
{
1040
0.014000000432
1002
}
1001
TCAD
1000
TCW_CUSTOM_DATA
1002
{
1000
#$AUX@_ToolInfo Properties
1070
           8
1000
Insert^JArc^JTriplePoint132@Arc TriplePoint132
1002
}
  0
CIRCLE
  5
98
100
AcDbEntity
 67
           1
  8
0
370
          35
  6
Continuous
 62
          30
100
AcDbCircle
 10
0.0
 20
0.0
 30
0.0
 40
0.0
1001
ACAD
1000
TCW40_DEV_WIDTH
1002
{
1040
0.014000000432
1002
}
1001
TCAD
1000
TCW_CUSTOM_DATA
1002
{
1000
#$AUX@_ToolInfo Properties
1070
           8
1000
Insert^JArc^JTriplePoint132@Arc TriplePoint132
1002
}
  0
CIRCLE
  5
99
100
AcDbEntity
 67
           1
  8
0
370
          35
  6
Continuous
 62
          30
100
AcDbCircle
 10
0.0
 20
0.0
 30
0.0
 40
0.0
1001
ACAD
1000
TCW40_DEV_WIDTH
1002
{
1040
0.014000000432
1002
}
1001
TCAD
1000
TCW_CUSTOM_DATA
1002
{
1000
#$AUX@_ToolInfo Properties
1070
           8
1000
Insert^JArc^JTriplePoint132@Arc TriplePoint132
1002
}
  0
CIRCLE
  5
9A
100
AcDbEntity
 67
           1
  8
0
370
          35
  6
Continuous
 62
          30
100
AcDbCircle
 10
0.0
 20
0.0
 30
0.0
 40
0.0
1001
ACAD
1000
TCW40_DEV_WIDTH
1002
{
1040
0.014000000432
1002
}
1001
TCAD
1000
TCW_CUSTOM_DATA
1002
{
1000
#$AUX@_ToolInfo Properties
1070
           8
1000
Insert^JArc^JTriplePoint132@Arc TriplePoint132
1002
}
  0
CIRCLE
  5
9B
100
AcDbEntity
 67
           1
  8
0
370
          35
  6
Continuous
 62
          30
100
AcDbCircle
 10
0.0
 20
0.0
 30
0.0
 40
0.0
1001
ACAD
1000
TCW40_DEV_WIDTH
1002
{
1040
0.014000000432
1002
}
1001
TCAD
1000
TCW_CUSTOM_DATA
1002
{
1000
#$AUX@_ToolInfo Properties
1070
           8
1000
Insert^JArc^JTriplePoint132@Arc TriplePoint132
1002
}
  0
CIRCLE
  5
9C
100
AcDbEntity
 67
           1
  8
0
370
          35
  6
Continuous
 62
          30
100
AcDbCircle
 10
0.0
 20
0.0
 30
0.0
 40
0.0
1001
ACAD
1000
TCW40_DEV_WIDTH
1002
{
1040
0.014000000432
1002
}
1001
TCAD
1000
TCW_CUSTOM_DATA
1002
{
1000
#$AUX@_ToolInfo Properties
1070
           8
1000
Insert^JArc^JTriplePoint132@Arc TriplePoint132
1002
}
  0
CIRCLE
  5
9D
100
AcDbEntity
 67
           1
  8
0
370
          35
  6
Continuous
 62
          30
100
AcDbCircle
 10
0.0
 20
0.0
 30
0.0
 40
0.0
1001
ACAD
1000
TCW40_DEV_WIDTH
1002
{
1040
0.014000000432
1002
}
1001
TCAD
1000
TCW_CUSTOM_DATA
1002
{
1000
#$AUX@_ToolInfo Properties
1070
           8
1000
Insert^JArc^JTriplePoint132@Arc TriplePoint132
1002
}
  0
CIRCLE
  5
9E
100
AcDbEntity
 67
           1
  8
0
370
          35
  6
Continuous
 62
          30
100
AcDbCircle
 10
0.0
 20
0.0
 30
0.0
 40
0.0
1001
ACAD
1000
TCW40_DEV_WIDTH
1002
{
1040
0.014000000432
1002
}
1001
TCAD
1000
TCW_CUSTOM_DATA
1002
{
1000
#$AUX@_ToolInfo Properties
1070
           8
1000
Insert^JArc^JTriplePoint132@Arc TriplePoint132
1002
}
  0
CIRCLE
  5
9F
100
AcDbEntity
 67
           1
  8
0
370
          35
  6
Continuous
 62
          30
100
AcDbCircle
 10
0.0
 20
0.0
 30
0.0
 40
0.0
1001
ACAD
1000
TCW40_DEV_WIDTH
1002
{
1040
0.014000000432
1002
}
1001
TCAD
1000
TCW_CUSTOM_DATA
1002
{
1000
#$AUX@_ToolInfo Properties
1070
           8
1000
Insert^JArc^JTriplePoint132@Arc TriplePoint132
1002
}
  0
CIRCLE
  5
A0
100
AcDbEntity
 67
           1
  8
0
370
          35
  6
Continuous
 62
          30
100
AcDbCircle
 10
0.0
 20
0.0
 30
0.0
 40
0.0
1001
ACAD
1000
TCW40_DEV_WIDTH
1002
{
1040
0.014000000432
1002
}
1001
TCAD
1000
TCW_CUSTOM_DATA
1002
{
1000
#$AUX@_ToolInfo Properties
1070
           8
1000
Insert^JArc^JTriplePoint132@Arc TriplePoint132
1002
}
  0
CIRCLE
  5
A1
100
AcDbEntity
 67
           1
  8
0
370
          35
  6
Continuous
 62
          30
100
AcDbCircle
 10
0.0
 20
0.0
 30
0.0
 40
0.0
1001
ACAD
1000
TCW40_DEV_WIDTH
1002
{
1040
0.014000000432
1002
}
1001
TCAD
1000
TCW_CUSTOM_DATA
1002
{
1000
#$AUX@_ToolInfo Properties
1070
           8
1000
Insert^JArc^JTriplePoint132@Arc TriplePoint132
1002
}
  0
CIRCLE
  5
A2
100
AcDbEntity
 67
           1
  8
0
370
          35
  6
Continuous
 62
          30
100
AcDbCircle
 10
0.0
 20
0.0
 30
0.0
 40
0.0
1001
ACAD
1000
TCW40_DEV_WIDTH
1002
{
1040
0.014000000432
1002
}
1001
TCAD
1000
TCW_CUSTOM_DATA
1002
{
1000
#$AUX@_ToolInfo Properties
1070
           8
1000
Insert^JArc^JTriplePoint132@Arc TriplePoint132
1002
}
  0
CIRCLE
  5
A3
100
AcDbEntity
 67
           1
  8
0
370
          35
  6
Continuous
 62
          30
100
AcDbCircle
 10
0.0
 20
0.0
 30
0.0
 40
0.0
1001
ACAD
1000
TCW40_DEV_WIDTH
1002
{
1040
0.014000000432
1002
}
1001
TCAD
1000
TCW_CUSTOM_DATA
1002
{
1000
#$AUX@_ToolInfo Properties
1070
           8
1000
Insert^JArc^JTriplePoint132@Arc TriplePoint132
1002
}
  0
ARC
  5
A4
100
AcDbEntity
 67
           1
  8
0
370
          35
  6
Continuous
 62
          30
100
AcDbCircle
 10
4.863739713727
 20
5.276539035631
 30
0.0
 40
0.008936084481
100
AcDbArc
 50
-90.286478455632
 51
-89.713525435078
1001
ACAD
1000
TCW40_DEV_WIDTH
1002
{
1040
0.014000000432
1002
}
1001
TCAD
1000
TCW_CUSTOM_DATA
1002
{
1000
#$AUX@_ToolInfo Properties
1070
           8
1000
Insert^JArc^JTriplePoint132@Arc TriplePoint132
1002
}
  0
CIRCLE
  5
A5
100
AcDbEntity
 67
           1
  8
0
370
          35
  6
Continuous
 62
          30
100
AcDbCircle
 10
0.0
 20
0.0
 30
0.0
 40
0.0
1001
ACAD
1000
TCW40_DEV_WIDTH
1002
{
1040
0.014000000432
1002
}
1001
TCAD
1000
TCW_CUSTOM_DATA
1002
{
1000
#$AUX@_ToolInfo Properties
1070
           8
1000
Insert^JArc^JTriplePoint132@Arc TriplePoint132
1002
}
  0
CIRCLE
  5
A6
100
AcDbEntity
 67
           1
  8
0
370
          35
  6
Continuous
 62
          30
100
AcDbCircle
 10
0.0
 20
0.0
 30
0.0
 40
0.0
1001
ACAD
1000
TCW40_DEV_WIDTH
1002
{
1040
0.014000000432
1002
}
1001
TCAD
1000
TCW_CUSTOM_DATA
1002
{
1000
#$AUX@_ToolInfo Properties
1070
           8
1000
Insert^JArc^JTriplePoint132@Arc TriplePoint132
1002
}
  0
CIRCLE
  5
A7
100
AcDbEntity
 67
           1
  8
0
370
          35
  6
Continuous
 62
          30
100
AcDbCircle
 10
0.0
 20
0.0
 30
0.0
 40
0.0
1001
ACAD
1000
TCW40_DEV_WIDTH
1002
{
1040
0.014000000432
1002
}
1001
TCAD
1000
TCW_CUSTOM_DATA
1002
{
1000
#$AUX@_ToolInfo Properties
1070
           8
1000
Insert^JArc^JTriplePoint132@Arc TriplePoint132
1002
}
  0
CIRCLE
  5
A8
100
AcDbEntity
 67
           1
  8
0
370
          35
  6
Continuous
 62
          30
100
AcDbCircle
 10
0.0
 20
0.0
 30
0.0
 40
0.0
1001
ACAD
1000
TCW40_DEV_WIDTH
1002
{
1040
0.014000000432
1002
}
1001
TCAD
1000
TCW_CUSTOM_DATA
1002
{
1000
#$AUX@_ToolInfo Properties
1070
           8
1000
Insert^JArc^JTriplePoint132@Arc TriplePoint132
1002
}
  0
LINE
  5
A9
100
AcDbEntity
 67
           1
  8
0
370
          35
  6
Continuous
 62
           7
100
AcDbLine
 10
6.227119688709
 20
5.304990620965
 30
0.0
 11
4.86733484723
 21
5.304990620965
 31
0.0
1001
ACAD
1000
TCW40_DEV_WIDTH
1002
{
1040
0.014000000432
1002
}
  0
ARC
  5
AA
100
AcDbEntity
 67
           1
  8
0
370
          35
  6
Continuous
 62
           7
100
AcDbCircle
 10
4.865419118663
 20
5.255866342877
 30
0.0
 40
0.049161618298
100
AcDbArc
 50
87.7667342186
 51
177.779414089111
1001
ACAD
1000
TCW40_DEV_WIDTH
1002
{
1040
0.014000000432
1002
}
1001
TCAD
1000
TCW_CUSTOM_DATA
1002
{
1000
#$AUX@_ToolInfo Properties
1070
           8
1000
Insert^JArc^JTriplePoint132@Arc TriplePoint132
1002
}
  0
ARC
  5
AB
100
AcDbEntity
 67
           1
  8
0
370
          35
  6
Continuous
 62
           7
100
AcDbCircle
 10
6.224285691626
 20
5.220992878519
 30
0.0
 40
0.084045536916
100
AcDbArc
 50
23.846933365946
 51
88.067632564261
1001
ACAD
1000
TCW40_DEV_WIDTH
1002
{
1040
0.014000000432
1002
}
1001
TCAD
1000
TCW_CUSTOM_DATA
1002
{
1000
#$AUX@_ToolInfo Properties
1070
           8
1000
Insert^JArc^JTriplePoint132@Arc TriplePoint132
1002
}
  0
LINE
  5
AC
100
AcDbEntity
 67
           1
  8
0
370
          35
  6
Continuous
 62
           7
100
AcDbLine
 10
6.873660286535
 20
5.254972038825
 30
0.0
 11
6.30115616021
 21
5.254972038825
 31
0.0
1001
ACAD
1000
TCW40_DEV_WIDTH
1002
{
1040
0.014000000432
1002
}
1001
TCAD
1000
TCW_CUSTOM_DATA
1002
{
1000
#$AUX@_ToolInfo Properties
1070
           8
1000
Modify^JMeet2Lines@Meet2Lines
1002
}
  0
LINE
  5
AD
100
AcDbEntity
 67
           1
  8
0
370
          35
  6
Continuous
 62
           7
100
AcDbLine
 10
5.674900333424
 20
5.576369464221
 30
0.0
 11
5.674900333424
 21
5.510335138653
 31
0.0
1001
ACAD
1000
TCW40_DEV_WIDTH
1002
{
1040
0.014000000432
1002
}
1001
TCAD
1000
TCW_CUSTOM_DATA
1002
{
1000
#$AUX@_ToolInfo Properties
1070
           8
1000
Modify^JMeet2Lines@Meet2Lines
1002
}
  0
LINE
  5
AE
100
AcDbEntity
 67
           1
  8
0
370
          35
  6
Continuous
 62
           7
100
AcDbLine
 10
4.930522670004
 20
5.966177193186
 30
0.0
 11
4.443398979012
 21
5.966177193186
 31
0.0
1001
ACAD
1000
TCW40_DEV_WIDTH
1002
{
1040
0.014000000432
1002
}
1001
TCAD
1000
TCW_CUSTOM_DATA
1002
{
1000
#$AUX@_ToolInfo Properties
1070
           8
1000
Modify^JMeet2Lines@Meet2Lines
1002
}
  0
LINE
  5
AF
100
AcDbEntity
 67
           1
  8
0
370
          35
  6
Continuous
 62
           7
100
AcDbLine
 10
4.930522670004
 20
5.966177193186
 30
0.0
 11
4.930522670004
 21
5.775095398766
 31
0.0
1001
ACAD
1000
TCW40_DEV_WIDTH
1002
{
1040
0.014000000432
1002
}
1001
TCAD
1000
TCW_CUSTOM_DATA
1002
{
1000
#$AUX@_ToolInfo Properties
1070
           8
1000
Modify^JMeet2Lines@Meet2Lines
1002
}
  0
LINE
  5
B0
100
AcDbEntity
 67
           1
  8
0
370
          35
  6
Continuous
 62
           7
100
AcDbLine
 10
4.98096158508
 20
5.775095398766
 30
0.0
 11
4.930522670004
 21
5.775095398766
 31
0.0
1001
ACAD
1000
TCW40_DEV_WIDTH
1002
{
1040
0.014000000432
1002
}
1001
TCAD
1000
TCW_CUSTOM_DATA
1002
{
1000
#$AUX@_ToolInfo Properties
1070
           8
1000
Modify^JMeet2Lines@Meet2Lines
1002
}
  0
ELLIPSE
  5
B1
100
AcDbEntity
 67
           1
  8
0
370
          35
  6
Continuous
 62
           7
100
AcDbEllipse
 10
5.207504221739
 20
5.72682219464
 30
0.0
 11
0.0
 21
-0.2366398787716315
 31
0.0
210
0.0
220
0.0
230
1.0
 40
0.977893860073
 41
1.7267861652629659
 42
4.5069526088932754
1001
ACAD
1000
TCW40_DEV_WIDTH
1002
{
1040
0.014000000432
1002
}
1001
TCAD
1000
TCW_CUSTOM_DATA
1002
{
1000
#$AUX@_ToolInfo Properties
1070
           8
1000
Insert^JArc^JTriplePoint132@Arc TriplePoint132
1002
}
  0
DIMENSION
  5
C0
100
AcDbEntity
 67
           1
  8
0
  6
Continuous
 62
           7
100
AcDbDimension
  2
*D0
 10
6.881826943444
 20
4.699414449823
 30
0.0
 11
5.667892814984
 21
4.859136673701
 31
0.0
 71
           5
 72
           1
 41
1.0
 42
0.0
  1
<2 7/16>
  3
STANDARD
100
AcDbAlignedDimension
 13
4.453958686523
 23
5.220956519828
 33
0.0
 14
6.881826943444
 24
5.211964415173
 34
0.0
100
AcDbRotatedDimension
1001
TCAD
1000
TCW_CUSTOM_DATA
1002
{
1000
#$AUX@_ToolInfo Properties
1070
           8
1000
Insert^JDimension^JOrthogonal@Dimension Orthogonal
1002
}
1001
ACAD
1000
DSTYLE
1002
{
1002
}
  0
TEXT
  5
C2
100
AcDbEntity
 67
           1
  8
0
  6
Continuous
 62
           7
100
AcDbText
 10
4.489191667686
 20
5.324765326044
 30
0.0
 40
0.058333334327
  1
© 2007 The Premium Series
  7
_TCW_TXTSTY_3
 11
4.489191667686
 21
5.383098660371
 31
0.0
100
AcDbText
 73
           3
1001
TCAD
1000
TCW40_TEXT
1002
{
1000
AvantGarde Bk BT
1070
           1
1070
         257
1002
}
  0
LINE
  5
C3
100
AcDbEntity
 67
           1
  8
0
370
          35
  6
Continuous
 62
           7
100
AcDbLine
 10
6.874239855109
 20
5.432720641532
 30
0.0
 11
6.874239855109
 21
5.25018517331
 31
0.0
1001
ACAD
1000
TCW40_DEV_WIDTH
1002
{
1040
0.014000000432
1002
}
1001
TCAD
1000
TCW_CUSTOM_DATA
1002
{
1000
#$AUX@_ToolInfo Properties
1070
           8
1000
Modify^JMeet2Lines@Meet2Lines
1002
}
  0
LINE
  5
C4
100
AcDbEntity
 67
           1
  8
0
370
          35
  6
Continuous
 62
           7
100
AcDbLine
 10
6.4532969546
 20
5.510335138653
 30
0.0
 11
5.674900333424
 21
5.510335138653
 31
0.0
1001
ACAD
1000
TCW40_DEV_WIDTH
1002
{
1040
0.014000000432
1002
}
1001
TCAD
1000
TCW_CUSTOM_DATA
1002
{
1000
#$AUX@_ToolInfo Properties
1070
           8
1000
Modify^JMeet2Lines@Meet2Lines
1002
}
  0
LINE
  5
C5
100
AcDbEntity
 67
           1
  8
0
370
          35
  6
Continuous
 62
           7
100
AcDbLine
 10
6.4532969546
 20
5.510335138653
 30
0.0
 11
6.4532969546
 21
5.467622641545
 31
0.0
1001
ACAD
1000
TCW40_DEV_WIDTH
1002
{
1040
0.014000000432
1002
}
1001
TCAD
1000
TCW_CUSTOM_DATA
1002
{
1000
#$AUX@_ToolInfo Properties
1070
           8
1000
Modify^JMeet2Lines@Meet2Lines
1002
}
  0
LINE
  5
C6
100
AcDbEntity
 67
           1
  8
0
370
          35
  6
Continuous
 62
           7
100
AcDbLine
 10
6.501210750084
 20
5.467622641545
 30
0.0
 11
6.4532969546
 21
5.467622641545
 31
0.0
1001
ACAD
1000
TCW40_DEV_WIDTH
1002
{
1040
0.014000000432
1002
}
1001
TCAD
1000
TCW_CUSTOM_DATA
1002
{
1000
#$AUX@_ToolInfo Properties
1070
           8
1000
Modify^JMeet2Lines@Meet2Lines
1002
}
  0
ELLIPSE
  5
C7
100
AcDbEntity
 67
           1
  8
0
370
          35
  6
Continuous
 62
           7
100
AcDbEllipse
 10
6.647114700876
 20
5.484280087924
 30
0.0
 11
0.0
 21
-0.1908361934137561
 31
0.0
210
0.0
220
0.0
230
1.0
 40
0.767578874377
 41
1.8019243201758499
 42
4.7997868213538446
1001
ACAD
1000
TCW40_DEV_WIDTH
1002
{
1040
0.014000000432
1002
}
1001
TCAD
1000
TCW_CUSTOM_DATA
1002
{
1000
#$AUX@_ToolInfo Properties
1070
           8
1000
Insert^JArc^JTriplePoint132@Arc TriplePoint132
1002
}
  0
ARC
  5
C8
100
AcDbEntity
 67
           1
  8
0
370
          35
  6
Continuous
 62
           7
100
AcDbCircle
 10
6.931679581275
 20
5.544743595182
 30
0.0
 40
0.142962553976
100
AcDbArc
 50
-173.272546105775
 51
-148.856383023109
1001
ACAD
1000
TCW40_DEV_WIDTH
1002
{
1040
0.014000000432
1002
}
1001
TCAD
1000
TCW_CUSTOM_DATA
1002
{
1000
#$AUX@_ToolInfo Properties
1070
           8
1000
Insert^JArc^JTriplePoint132@Arc TriplePoint132
1002
}
  0
ARC
  5
C9
100
AcDbEntity
 67
           1
  8
0
370
          35
  6
Continuous
 62
           7
100
AcDbCircle
 10
6.88070787087
 20
5.518116861245
 30
0.0
 40
0.085640817192
100
AcDbArc
 50
-146.465475829762
 51
-94.331383479558
1001
ACAD
1000
TCW40_DEV_WIDTH
1002
{
1040
0.014000000432
1002
}
1001
TCAD
1000
TCW_CUSTOM_DATA
1002
{
1000
#$AUX@_ToolInfo Properties
1070
           8
1000
Insert^JArc^JTriplePoint132@Arc TriplePoint132
1002
}
  0
DIMENSION
  5
D8
100
AcDbEntity
 67
           1
  8
0
  6
Continuous
 62
           7
100
AcDbDimension
  2
*D1
 10
3.890266125581
 20
5.257771199925
 30
0.0
 11
3.890266125581
 21
5.611974196556
 31
0.0
 71
           5
 72
           1
 41
1.0
 42
0.0
  1
<11/16>
  3
STANDARD
100
AcDbAlignedDimension
 13
4.443398979012
 23
5.966177193186
 33
0.0
 14
4.443398979012
 24
5.257771199925
 34
0.0
 50
-90.0
100
AcDbRotatedDimension
1001
TCAD
1000
TCW_CUSTOM_DATA
1002
{
1000
#$AUX@_ToolInfo Properties
1070
           8
1000
Insert^JDimension^JOrthogonal@Dimension Orthogonal
1002
}
1001
ACAD
1000
DSTYLE
1002
{
1002
}
  0
TEXT
  5
D9
100
AcDbEntity
 67
           1
  8
0
  6
Continuous
 62
           7
100
AcDbText
 10
4.823788756272
 20
2.414288054377
 30
0.0
 40
0.133333003521
  1
# 1184
  7
_TCW_TXTSTY_1
 11
4.823788756272
 21
2.547621057898
 31
0.0
100
AcDbText
 73
           3
1001
TCAD
1000
TCW40_TEXT
1002
{
1000
Times New Roman
1070
           0
1070
         257
1002
}
  0
TEXT
  5
DA
100
AcDbEntity
 67
           1
  8
0
  6
Continuous
 62
           7
100
AcDbText
 10
4.791737073129
 20
2.079606951551
 30
0.0
 40
0.10000000298
  1
11/16 (18mm) x 2-7/16
  7
_TCW_TXTSTY_1
 11
4.791737073129
 21
2.179606954531
 31
0.0
100
AcDbText
 73
           3
1001
TCAD
1000
TCW_REFPOINT
1002
{
1010
4.791737073129
1020
2.212939954531
1030
0.0
1002
}
1000
TCW40_TEXT
1002
{
1000
Times New Roman
1070
           0
1070
         257
1002
}
  0
ARC
  5
DB
100
AcDbEntity
 67
           1
  8
0
370
          35
  6
Continuous
 62
           7
100
AcDbCircle
 10
5.645664366998
 20
5.784981298307
 30
0.0
 40
0.210650514013
100
AcDbArc
 50
-174.170569577461
 51
-82.022225169952
1001
ACAD
1000
TCW40_DEV_WIDTH
1002
{
1040
0.014000000432
1002
}
1001
TCAD
1000
TCW_CUSTOM_DATA
1002
{
1000
#$AUX@_ToolInfo Properties
1070
           8
1000
Insert^JArc^JTriplePoint132@Arc TriplePoint132
1002
}
  0
ENDSEC
  0
SECTION
  2
OBJECTS
  0
DICTIONARY
  5
19
100
AcDbDictionary
280
           0
281
           1
  3
ACAD_GROUP
350
1A
  3
ACAD_MLINESTYLE
350
1B
  3
ACAD_LAYOUT
350
1E
  3
ACAD_PLOTSETTINGS
350
22
  3
ACAD_PLOTSTYLENAME
350
1F
  0
DICTIONARY
  5
1A
102
{ACAD_REACTORS
330
19
102
}
100
AcDbDictionary
280
           0
281
           1
  0
DICTIONARY
  5
1B
102
{ACAD_REACTORS
330
19
102
}
100
AcDbDictionary
280
           0
281
           1
  3
Standard
350
1C
  0
MLINESTYLE
  5
1C
100
AcDbMlineStyle
  2
STANDARD
 70
           0
  3

 62
         256
 51
90.0
 52
90.0
 71
           3
 49
0.25
 62
           7
  6
ByLayer
 49
0.0
 62
           7
  6
ByLayer
 49
-0.25
 62
           7
  6
ByLayer
  0
ACDBDICTIONARYWDFLT
  5
1F
102
{ACAD_REACTORS
330
19
102
}
100
AcDbDictionary
281
           1
  3
Normal
350
1D
100
AcDbDictionaryWithDefault
340
1D
  0
ACDBPLACEHOLDER
  5
1D
102
{ACAD_REACTORS
330
1F
102
}
  0
LAYOUT
  5
21
102
{ACAD_REACTORS
330
1E
102
}
100
AcDbPlotSettings
  1

  2

  4

  6

 40
0.0
 41
0.0
 42
0.0
 43
0.0
 44
0.0
 45
0.0
 46
0.0
 47
0.0
 48
0.0
 49
0.0
140
0.0
141
0.0
142
1.0
143
1.0
 70
           0
 72
           0
 73
           0
 74
           0
  7

 75
           0
147
1.0
148
0.0
149
0.0
100
AcDbLayout
  1
Layout1
 70
           0
 71
           0
 10
0.0
 20
0.0
 11
0.0
 21
0.0
 12
0.0
 22
0.0
 32
0.0
 14
0.0
 24
0.0
 34
0.0
 15
0.0
 25
0.0
 35
0.0
146
0.0
 13
0.0
 23
0.0
 33
0.0
 16
0.0
 26
0.0
 36
0.0
 17
0.0
 27
0.0
 37
0.0
 76
           0
330
B
331
0
345
0
346
0
  0
DICTIONARY
  5
1E
102
{ACAD_REACTORS
330
19
102
}
100
AcDbDictionary
280
           0
281
           1
  3
Model
350
36
  3
Paper 1
350
DC
  0
DICTIONARY
  5
22
102
{ACAD_REACTORS
330
19
102
}
100
AcDbDictionary
280
           0
281
           1
  0
LAYOUT
  5
36
100
AcDbPlotSettings
  1

  2

  4

  6

 40
0.0
 41
0.0
 42
0.0
 43
0.0
 44
0.0
 45
0.0
 46
0.0
 47
0.0
 48
0.0
 49
0.0
140
0.0
141
0.0
142
1.0
143
1.0
 70
           0
 72
           0
 73
           0
 74
           0
  7

 75
           0
147
1.0
148
0.0
149
0.0
100
AcDbLayout
  1
Model
 70
           0
 71
           0
 10
0.0
 20
0.0
 11
0.0
 21
0.0
 12
0.0
 22
0.0
 32
0.0
 14
0.0
 24
0.0
 34
0.0
 15
0.0
 25
0.0
 35
0.0
146
0.0
 13
0.0
 23
0.0
 33
0.0
 16
0.0
 26
0.0
 36
0.0
 17
0.0
 27
0.0
 37
0.0
 76
           0
330
A
331
0
345
0
346
0
  0
LAYOUT
  5
DC
100
AcDbPlotSettings
  1

  2

  4

  6

 40
0.0
 41
0.0
 42
0.0
 43
0.0
 44
215.9
 45
279.4
 46
-31.75
 47
31.75
 48
0.0
 49
0.0
140
0.0
141
0.0
142
1.0
143
1.0
 70
           0
 72
           0
 73
           0
 74
           0
  7

 75
           0
147
1.0
148
0.0
149
0.0
100
AcDbLayout
  1
Paper 1
 70
           1
 71
           1
 10
31.75
 20
-31.75
 11
247.65
 21
247.65
 12
0.0
 22
0.0
 32
0.0
 14
0.0
 24
0.0
 34
0.0
 15
0.0
 25
0.0
 35
0.0
146
0.0
 13
0.0
 23
0.0
 33
0.0
 16
0.0
 26
0.0
 36
0.0
 17
0.0
 27
0.0
 37
0.0
 76
           0
330
B
331
37
345
0
346
0
  0
ENDSEC
  0
EOF
