  0
SECTION
  2
HEADER
  9
$ACADVER
  1
AC1015
  9
$ACADMAINTVER
 70
           6
  9
$DWGCODEPAGE
  3
ANSI_1252
  9
$INSBASE
 10
0.0
 20
0.0
 30
0.0
  9
$EXTMIN
 10
1.000000000000E+20
 20
1.000000000000E+20
 30
1.000000000000E+20
  9
$EXTMAX
 10
-1.000000000000E+20
 20
-1.000000000000E+20
 30
-1.000000000000E+20
  9
$LIMMIN
 10
0.0
 20
0.0
  9
$LIMMAX
 10
0.0
 20
0.0
  9
$ORTHOMODE
 70
           0
  9
$REGENMODE
 70
           1
  9
$FILLMODE
 70
           1
  9
$QTEXTMODE
 70
           0
  9
$MIRRTEXT
 70
           1
  9
$LTSCALE
 40
1.0
  9
$ATTMODE
 70
           1
  9
$TEXTSIZE
 40
0.5
  9
$TRACEWID
 40
1.0
  9
$TEXTSTYLE
  7
STANDARD
  9
$CLAYER
  8
0
  9
$CELTYPE
  6
Continuous
  9
$CECOLOR
 62
           7
  9
$CELTSCALE
 40
1.0
  9
$DISPSILH
 70
           0
  9
$DIMSCALE
 40
1.0
  9
$DIMASZ
 40
0.125
  9
$DIMEXO
 40
0.0625
  9
$DIMDLI
 40
0.375
  9
$DIMRND
 40
0.0001
  9
$DIMDLE
 40
0.0
  9
$DIMEXE
 40
0.125
  9
$DIMTP
 40
0.0
  9
$DIMTM
 40
0.0
  9
$DIMTXT
 40
0.11666666664
  9
$DIMCEN
 40
0.09
  9
$DIMTSZ
 40
0.0
  9
$DIMTOL
 70
           0
  9
$DIMLIM
 70
           0
  9
$DIMTIH
 70
           1
  9
$DIMTOH
 70
           1
  9
$DIMSE1
 70
           0
  9
$DIMSE2
 70
           0
  9
$DIMTAD
 70
           1
  9
$DIMZIN
 70
           0
  9
$DIMBLK
  1

  9
$DIMASO
 70
           0
  9
$DIMSHO
 70
           1
  9
$DIMPOST
  1
<>in
  9
$DIMAPOST
  1
<>
  9
$DIMALT
 70
           0
  9
$DIMALTD
 70
           2
  9
$DIMALTF
 40
1.0
  9
$DIMLFAC
 40
1.0
  9
$DIMTOFL
 70
           1
  9
$DIMTVP
 40
0.0
  9
$DIMTIX
 70
           1
  9
$DIMSOXD
 70
           0
  9
$DIMSAH
 70
           0
  9
$DIMBLK1
  1

  9
$DIMBLK2
  1

  9
$DIMSTYLE
  2
STANDARD
  9
$DIMCLRD
 70
           7
  9
$DIMCLRE
 70
           7
  9
$DIMCLRT
 70
           7
  9
$DIMTFAC
 40
1.0
  9
$DIMGAP
 40
0.0625
  9
$DIMJUST
 70
           0
  9
$DIMSD1
 70
           0
  9
$DIMSD2
 70
           0
  9
$DIMTOLJ
 70
           1
  9
$DIMTZIN
 70
           0
  9
$DIMALTZ
 70
           0
  9
$DIMALTTZ
 70
           0
  9
$DIMUPT
 70
           0
  9
$DIMDEC
 70
           4
  9
$DIMTDEC
 70
           4
  9
$DIMALTU
 70
           2
  9
$DIMALTTD
 70
           2
  9
$DIMTXSTY
  7
STANDARD
  9
$DIMAUNIT
 70
           0
  9
$DIMADEC
 70
           4
  9
$DIMALTRND
 40
0.0
  9
$DIMAZIN
 70
           0
  9
$DIMDSEP
 70
           0
  9
$DIMATFIT
 70
           0
  9
$DIMFRAC
 70
           0
  9
$DIMLDRBLK
  1

  9
$DIMLUNIT
 70
           5
  9
$DIMLWD
 70
           0
  9
$DIMLWE
 70
           0
  9
$DIMTMOVE
 70
           0
  9
$LUNITS
 70
           2
  9
$LUPREC
 70
           2
  9
$SKETCHINC
 40
1.0
  9
$FILLETRAD
 40
0.0236097105
  9
$AUNITS
 70
           0
  9
$AUPREC
 70
           2
  9
$MENU
  1
acad
  9
$ELEVATION
 40
0.0
  9
$PELEVATION
 40
0.0
  9
$THICKNESS
 40
0.0
  9
$LIMCHECK
 70
           0
  9
$CHAMFERA
 40
0.0
  9
$CHAMFERB
 40
0.0
  9
$CHAMFERC
 40
0.0
  9
$CHAMFERD
 40
0.0
  9
$SKPOLY
 70
           0
  9
$TDCREATE
 40
0.000000000
  9
$TDUCREATE
 40
0.000000000
  9
$TDUPDATE
 40
0.000000000
  9
$TDUUPDATE
 40
0.000000000
  9
$TDINDWG
 40
0.0000000000
  9
$TDUSRTIMER
 40
0.0000000000
  9
$USRTIMER
 70
           1
  9
$ANGBASE
 50
0.0
  9
$ANGDIR
 70
           0
  9
$PDMODE
 70
           0
  9
$PDSIZE
 40
0.0
  9
$PLINEWID
 40
0.0
  9
$SPLFRAME
 70
           0
  9
$SPLINETYPE
 70
           6
  9
$SPLINESEGS
 70
          20
  9
$HANDSEED
  5
75
  9
$SURFTAB1
 70
           6
  9
$SURFTAB2
 70
           6
  9
$SURFTYPE
 70
           6
  9
$SURFU
 70
           6
  9
$SURFV
 70
           6
  9
$UCSBASE
  2

  9
$UCSNAME
  2

  9
$UCSORG
 10
0.0
 20
0.0
 30
0.0
  9
$UCSXDIR
 10
1.0
 20
0.0
 30
0.0
  9
$UCSYDIR
 10
0.0
 20
1.0
 30
0.0
  9
$UCSORTHOREF
  2

  9
$UCSORTHOVIEW
 70
           0
  9
$UCSORGTOP
 10
0.0
 20
0.0
 30
0.0
  9
$UCSORGBOTTOM
 10
0.0
 20
0.0
 30
0.0
  9
$UCSORGLEFT
 10
0.0
 20
0.0
 30
0.0
  9
$UCSORGRIGHT
 10
0.0
 20
0.0
 30
0.0
  9
$UCSORGFRONT
 10
0.0
 20
0.0
 30
0.0
  9
$UCSORGBACK
 10
0.0
 20
0.0
 30
0.0
  9
$PUCSBASE
  2

  9
$PUCSNAME
  2

  9
$PUCSORG
 10
0.0
 20
0.0
 30
0.0
  9
$PUCSXDIR
 10
1.0
 20
0.0
 30
0.0
  9
$PUCSYDIR
 10
0.0
 20
1.0
 30
0.0
  9
$PUCSORTHOREF
  2

  9
$PUCSORTHOVIEW
 70
           0
  9
$PUCSORGTOP
 10
0.0
 20
0.0
 30
0.0
  9
$PUCSORGBOTTOM
 10
0.0
 20
0.0
 30
0.0
  9
$PUCSORGLEFT
 10
0.0
 20
0.0
 30
0.0
  9
$PUCSORGRIGHT
 10
0.0
 20
0.0
 30
0.0
  9
$PUCSORGFRONT
 10
0.0
 20
0.0
 30
0.0
  9
$PUCSORGBACK
 10
0.0
 20
0.0
 30
0.0
  9
$USERI1
 70
           0
  9
$USERI2
 70
           0
  9
$USERI3
 70
           0
  9
$USERI4
 70
           0
  9
$USERI5
 70
           0
  9
$USERR1
 40
0.0
  9
$USERR2
 40
0.0
  9
$USERR3
 40
0.0
  9
$USERR4
 40
0.0
  9
$USERR5
 40
0.0
  9
$WORLDVIEW
 70
           1
  9
$SHADEDGE
 70
           3
  9
$SHADEDIF
 70
          70
  9
$TILEMODE
 70
           0
  9
$MAXACTVP
 70
          16
  9
$PINSBASE
 10
0.0
 20
0.0
 30
0.0
  9
$PLIMCHECK
 70
           0
  9
$PEXTMIN
 10
1.25
 20
-1.25
 30
0.0
  9
$PEXTMAX
 10
9.75
 20
9.75
 30
0.0
  9
$PLIMMIN
 10
1.25
 20
-1.25
  9
$PLIMMAX
 10
9.75
 20
9.75
  9
$UNITMODE
 70
           0
  9
$VISRETAIN
 70
           0
  9
$PLINEGEN
 70
           1
  9
$PSLTSCALE
 70
           1
  9
$TREEDEPTH
 70
        3020
  9
$CMLSTYLE
  2
STANDARD
  9
$CMLJUST
 70
           0
  9
$CMLSCALE
 40
1.0
  9
$PROXYGRAPHICS
 70
           0
  9
$MEASUREMENT
 70
           0
  9
$CELWEIGHT
370
           0
  9
$ENDCAPS
280
           0
  9
$JOINSTYLE
280
           0
  9
$LWDISPLAY
290
           0
  9
$INSUNITS
 70
           0
  9
$HYPERLINKBASE
  1

  9
$STYLESHEET
  1

  9
$XEDIT
290
           1
  9
$CEPSNTYPE
380
           0
  9
$PSTYLEMODE
290
           1
  9
$FINGERPRINTGUID
  2

  9
$VERSIONGUID
  2

  9
$EXTNAMES
290
           1
  9
$PSVPSCALE
 40
0.0
  0
ENDSEC
  0
SECTION
  2
CLASSES
  0
CLASS
  1
LWPOLYLINE
  2
AcDbPolyline
  3
AutoCAD 2000
 90
        0
280
           0
281
           1
  0
CLASS
  1
IMAGE
  2
AcDbRasterImage
  3
ISM
 90
    32895
280
           0
281
           1
  0
CLASS
  1
OLE2FRAME
  2
AcDbOle2Frame
  3
AutoCAD 2000
 90
    32768
280
           0
281
           1
  0
CLASS
  1
HATCH
  2
AcDbHatch
  3
AutoCAD 2000
 90
        0
280
           0
281
           1
  0
CLASS
  1
DICTIONARYVAR
  2
AcDbDictionaryVar
  3
AutoCAD 2000
 90
    32768
280
           0
281
           0
  0
CLASS
  1
RASTERVARIABLES
  2
AcDbRasterVariables
  3
ISM
 90
    32768
280
           0
281
           0
  0
CLASS
  1
IMAGEDEF
  2
AcDbRasterImageDef
  3
ISM
 90
    32768
280
           0
281
           0
  0
CLASS
  1
IMAGEDEF_REACTOR
  2
AcDbRasterImageDefReactor
  3
ISM
 90
    32769
280
           0
281
           0
  0
CLASS
  1
IDBUFFER
  2
AcDbIdBuffer
  3
AutoCAD 2000
 90
    32768
280
           0
281
           0
  0
CLASS
  1
SPATIAL_FILTER
  2
AcDbSpatialFilter
  3
AutoCAD 2000
 90
    32768
280
           0
281
           0
  0
CLASS
  1
XRECORD
  2
AcDbXrecord
  3
AutoCAD 2000
 90
    32768
280
           0
281
           0
  0
CLASS
  1
SORTENTSTABLE
  2
AcDbSortentsTable
  3
AutoCAD 2000
 90
    32768
280
           0
281
           0
  0
CLASS
  1
LAYER_INDEX
  2
AcDbLayerIndex
  3
AutoCAD 2000
 90
    32768
280
           0
281
           0
  0
CLASS
  1
SPATIAL_INDEX
  2
AcDbSpatialIndex
  3
AutoCAD 2000
 90
    32768
280
           0
281
           0
  0
CLASS
  1
OBJECT_PTR
  2
CAseDLPNTableRecord
  3
"ASE-LPNTableRecord"
 90
    32769
280
           0
281
           0
  0
CLASS
  1
LAYOUT
  2
AcDbLayout
  3
AutoCAD 2000
 90
        0
280
           0
281
           0
  0
CLASS
  1
PLOTSETTINGS
  2
AcDbPlotSettings
  3
AutoCAD 2000
 90
    32768
280
           0
281
           0
  0
CLASS
  1
ACDBDICTIONARYWDFLT
  2
AcDbDictionaryWithDefault
  3
AutoCAD 2000
 90
        0
280
           0
281
           0
  0
CLASS
  1
ACDBPLACEHOLDER
  2
AcDbPlaceHolder
  3
AutoCAD 2000
 90
        0
280
           0
281
           0
  0
ENDSEC
  0
SECTION
  2
TABLES
  0
TABLE
  2
VPORT
  5
7
100
AcDbSymbolTable
 70
           1
  0
VPORT
  5
15
100
AcDbSymbolTableRecord
100
AcDbViewportTableRecord
  2
*ACTIVE
 70
           0
 10
0.0
 20
0.0
 11
1.0
 21
1.0
 12
5.622139746967
 22
3.3834325455
 13
0.0
 23
0.0
 14
0.5
 24
0.5
 15
0.5
 25
0.5
 16
0.0
 26
0.0
 36
1.0
 17
0.0
 27
0.0
 37
0.0
 40
4.853577257051
 41
1.455324357405
 42
50.0
 43
0.0
 44
0.0
 50
0.0
 51
0.0
 71
           0
 72
         100
 73
           1
 74
           1
 75
           0
 76
           0
 77
           0
 78
           0
281
           0
 65
           0
110
0.0
120
0.0
130
0.0
111
1.0
121
0.0
131
0.0
112
0.0
122
1.0
132
0.0
345
0
346
0
 79
           0
146
0.0
  0
ENDTAB
  0
TABLE
  2
LTYPE
  5
4
100
AcDbSymbolTable
 70
          15
  0
LTYPE
  5
11
100
AcDbSymbolTableRecord
100
AcDbLinetypeTableRecord
  2
ByBlock
 70
          64
  3

 72
          65
 73
           0
 40
0.0
  0
LTYPE
  5
12
100
AcDbSymbolTableRecord
100
AcDbLinetypeTableRecord
  2
ByLayer
 70
          64
  3

 72
          65
 73
           0
 40
0.0
  0
LTYPE
  5
13
100
AcDbSymbolTableRecord
100
AcDbLinetypeTableRecord
  2
Continuous
 70
          64
  3
Solid line
 72
          65
 73
           0
 40
0.0
  0
LTYPE
  5
24
100
AcDbSymbolTableRecord
100
AcDbLinetypeTableRecord
  2
BORDER
 70
           0
  3
BORDER
 72
          65
 73
           6
 40
1.75
 49
0.5
 74
           0
 49
-0.25
 74
           0
 49
0.5
 74
           0
 49
-0.25
 74
           0
 49
0.0
 74
           0
 49
-0.25
 74
           0
  0
LTYPE
  5
25
100
AcDbSymbolTableRecord
100
AcDbLinetypeTableRecord
  2
CENTER
 70
           0
  3
CENTER
 72
          65
 73
           4
 40
2.0
 49
1.25
 74
           0
 49
-0.25
 74
           0
 49
0.25
 74
           0
 49
-0.25
 74
           0
  0
LTYPE
  5
26
100
AcDbSymbolTableRecord
100
AcDbLinetypeTableRecord
  2
DASHDOT
 70
           0
  3
DASHDOT
 72
          65
 73
           4
 40
1.0
 49
0.5
 74
           0
 49
-0.25
 74
           0
 49
0.0
 74
           0
 49
-0.25
 74
           0
  0
LTYPE
  5
27
100
AcDbSymbolTableRecord
100
AcDbLinetypeTableRecord
  2
DASHED
 70
           0
  3
DASHED
 72
          65
 73
           2
 40
0.75
 49
0.5
 74
           0
 49
-0.25
 74
           0
  0
LTYPE
  5
28
100
AcDbSymbolTableRecord
100
AcDbLinetypeTableRecord
  2
DIVIDE
 70
           0
  3
DIVIDE
 72
          65
 73
           6
 40
1.25
 49
0.5
 74
           0
 49
-0.25
 74
           0
 49
0.0
 74
           0
 49
-0.25
 74
           0
 49
0.0
 74
           0
 49
-0.25
 74
           0
  0
LTYPE
  5
29
100
AcDbSymbolTableRecord
100
AcDbLinetypeTableRecord
  2
DOT
 70
           0
  3
DOT
 72
          65
 73
           2
 40
0.25
 49
0.0
 74
           0
 49
-0.25
 74
           0
  0
LTYPE
  5
2A
100
AcDbSymbolTableRecord
100
AcDbLinetypeTableRecord
  2
HIDDEN
 70
           0
  3
HIDDEN
 72
          65
 73
           2
 40
0.375
 49
0.25
 74
           0
 49
-0.125
 74
           0
  0
LTYPE
  5
2B
100
AcDbSymbolTableRecord
100
AcDbLinetypeTableRecord
  2
PHANTOM
 70
           0
  3
PHANTOM
 72
          65
 73
           6
 40
2.5
 49
1.25
 74
           0
 49
-0.25
 74
           0
 49
0.25
 74
           0
 49
-0.25
 74
           0
 49
0.25
 74
           0
 49
-0.25
 74
           0
  0
LTYPE
  5
2C
100
AcDbSymbolTableRecord
100
AcDbLinetypeTableRecord
  2
$INVISIBLE
 70
           0
  3
$INVISIBLE
 72
          65
 73
           2
 40
200.0
 49
-100.0
 74
           0
 49
-100.0
 74
           0
  0
LTYPE
  5
2D
100
AcDbSymbolTableRecord
100
AcDbLinetypeTableRecord
  2
$SNAPEXT
 70
           0
  3
$SNAPEXT
 72
          65
 73
           2
 40
0.04
 49
0.02
 74
           0
 49
-0.02
 74
           0
  0
LTYPE
  5
2E
100
AcDbSymbolTableRecord
100
AcDbLinetypeTableRecord
  2
$CONSTRUCTION
 70
           0
  3
$CONSTRUCTION
 72
          65
 73
           4
 40
0.3
 49
0.2
 74
           0
 49
-0.05
 74
           0
 49
0.0
 74
           0
 49
-0.05
 74
           0
  0
LTYPE
  5
2F
100
AcDbSymbolTableRecord
100
AcDbLinetypeTableRecord
  2
$AUXILIARY
 70
           0
  3
$AUXILIARY
 72
          65
 73
           2
 40
0.1
 49
0.05
 74
           0
 49
-0.05
 74
           0
  0
ENDTAB
  0
TABLE
  2
LAYER
  5
2
100
AcDbSymbolTable
 70
           5
  0
LAYER
  5
14
100
AcDbSymbolTableRecord
100
AcDbLayerTableRecord
  2
0
 70
           0
 62
           7
  6
Continuous
290
           1
370
           0
390
0
1001
TCAD
1000
TCW_LAYER_ORDER
1002
{
1071
        0
1002
}
  0
LAYER
  5
30
100
AcDbSymbolTableRecord
100
AcDbLayerTableRecord
  2
$CONSTRUCTION
 70
           0
 62
           9
  6
$CONSTRUCTION
290
           1
370
           0
390
0
1001
TCAD
1000
TCW_LAYER_ORDER
1002
{
1071
        0
1002
}
  0
LAYER
  5
31
100
AcDbSymbolTableRecord
100
AcDbLayerTableRecord
  2
LAYER_1
 70
           0
 62
           7
  6
Continuous
290
           1
370
           0
390
0
1001
TCAD
1000
TCW_LAYER_ORDER
1002
{
1071
        0
1002
}
  0
LAYER
  5
32
100
AcDbSymbolTableRecord
100
AcDbLayerTableRecord
  2
LAYER_2
 70
           0
 62
           7
  6
Continuous
290
           1
370
           0
390
0
1001
TCAD
1000
TCW_LAYER_ORDER
1002
{
1071
        0
1002
}
  0
LAYER
  5
33
100
AcDbSymbolTableRecord
100
AcDbLayerTableRecord
  2
7
 70
           0
 62
           7
  6
Continuous
290
           1
370
           0
390
0
1001
TCAD
1000
TCW_LAYER_ORDER
1002
{
1071
        0
1002
}
  0
ENDTAB
  0
TABLE
  2
STYLE
  5
3
100
AcDbSymbolTable
 70
           4
  0
STYLE
  5
17
100
AcDbSymbolTableRecord
100
AcDbTextStyleTableRecord
  2
STANDARD
 70
           0
 40
0.0
 41
1.0
 50
0.0
 71
           0
 42
0.15000000596
  3
ARIAL.TTF
  4

1001
ACAD
1000
Arial
1071
       34
  0
STYLE
  5
35
100
AcDbSymbolTableRecord
100
AcDbTextStyleTableRecord
  2
_TCW_TXTSTY_1
 70
           0
 40
0.0
 41
1.0
 50
0.0
 71
           0
 42
0.600000023842
  3
TIMES.TTF
  4

1001
ACAD
1000
Times New Roman
1071
      290
  0
STYLE
  5
39
100
AcDbSymbolTableRecord
100
AcDbTextStyleTableRecord
  2
_TCW_TXTSTY_2
 70
           0
 40
0.0
 41
1.22000002861
 50
0.0
 71
           0
 42
0.08749999851
  3
TIMES.TTF
  4

1001
ACAD
1000
Times New Roman
1071
      290
  0
STYLE
  5
5B
100
AcDbSymbolTableRecord
100
AcDbTextStyleTableRecord
  2
_TCW_TXTSTY_3
 70
           0
 40
0.0
 41
1.0
 50
0.0
 71
           0
 42
0.058333333582
  3

  4

1001
ACAD
1000
AvantGarde Bk BT
1071
 16777506
  0
ENDTAB
  0
TABLE
  2
VIEW
  5
5
100
AcDbSymbolTable
 70
           1
  0
VIEW
  5
34
100
AcDbSymbolTableRecord
100
AcDbViewTableRecord
  2
View_0
 70
           0
 40
8.267716535433
 10
5.846456692913
 20
4.133858267717
 41
11.692913385827
 11
0.0
 21
0.0
 31
1.0
 12
0.0
 22
0.0
 32
0.0
 42
92.090489446729
 43
0.0
 44
0.0
 50
0.0
 71
           0
281
           0
 72
           0
110
0.0
120
0.0
130
0.0
111
1.0
121
0.0
131
0.0
112
0.0
122
1.0
132
0.0
  0
ENDTAB
  0
TABLE
  2
UCS
  5
6
100
AcDbSymbolTable
 70
           0
  0
ENDTAB
  0
TABLE
  2
APPID
  5
8
100
AcDbSymbolTable
 70
           2
  0
APPID
  5
16
100
AcDbSymbolTableRecord
100
AcDbRegAppTableRecord
  2
ACAD
 70
           0
  0
APPID
  5
23
100
AcDbSymbolTableRecord
100
AcDbRegAppTableRecord
  2
TCAD
 70
           0
  0
ENDTAB
  0
TABLE
  2
DIMSTYLE
  5
9
100
AcDbSymbolTable
 70
           1
100
AcDbDimStyleTable
 71
           0
  0
DIMSTYLE
105
18
100
AcDbSymbolTableRecord
100
AcDbDimStyleTableRecord
  2
STANDARD
 70
           0
  3
<>in
  4
<>
 40
1.0
 41
0.125
 42
0.0625
 43
0.375
 44
0.125
 45
0.0001
 46
0.0
 47
0.0
 48
0.0
 71
           0
 72
           0
 73
           1
 74
           1
 75
           0
 76
           0
 77
           1
 78
           0
 79
           0
140
0.11666666664
141
0.09
142
0.0
143
1.0
144
1.0
145
0.0
146
1.0
147
0.0625
148
0.01
170
           0
171
           2
172
           1
173
           0
174
           1
175
           0
176
           7
177
           7
178
           7
179
           4
271
           4
272
           4
273
           2
274
           2
275
           0
276
           0
277
           5
278
          46
279
           0
280
           0
281
           0
282
           0
283
           1
284
           0
285
           0
286
           0
288
           0
340
35
341
0
342
0
343
0
344
0
371
          -2
372
          -2
  0
ENDTAB
  0
TABLE
  2
BLOCK_RECORD
  5
1
100
AcDbSymbolTable
 70
           2
  0
BLOCK_RECORD
  5
A
100
AcDbSymbolTableRecord
100
AcDbBlockTableRecord
  2
*MODEL_SPACE
340
36
  0
BLOCK_RECORD
  5
B
100
AcDbSymbolTableRecord
100
AcDbBlockTableRecord
  2
*PAPER_SPACE
340
74
  0
BLOCK_RECORD
  5
45
100
AcDbSymbolTableRecord
100
AcDbBlockTableRecord
  2
*D0
340
0
  0
BLOCK_RECORD
  5
64
100
AcDbSymbolTableRecord
100
AcDbBlockTableRecord
  2
*D1
340
0
  0
ENDTAB
  0
ENDSEC
  0
SECTION
  2
BLOCKS
  0
BLOCK
  5
D
100
AcDbEntity
  8
0
100
AcDbBlockBegin
  2
*MODEL_SPACE
 70
           0
 10
0.0
 20
0.0
 30
0.0
  3
*MODEL_SPACE
  1

  0
ENDBLK
  5
E
100
AcDbEntity
  8
0
100
AcDbBlockEnd
  0
BLOCK
  5
F
100
AcDbEntity
 67
           1
  8
0
100
AcDbBlockBegin
  2
*PAPER_SPACE
 70
           0
 10
0.0
 20
0.0
 30
0.0
  3
*PAPER_SPACE
  1

  0
ENDBLK
  5
10
100
AcDbEntity
 67
           1
  8
0
100
AcDbBlockEnd
  0
BLOCK
  5
46
100
AcDbEntity
  8
0
100
AcDbBlockBegin
  2
*D0
 70
           1
 10
0.0
 20
0.0
 30
0.0
  3
*D0
  1

  0
LINE
  5
47
100
AcDbEntity
  8
0
  6
Continuous
 62
           7
100
AcDbLine
 10
4.061288916133
 20
3.897603700614
 30
0.0
 11
4.061288916133
 21
3.353160768062
 31
0.0
1001
ACAD
1000
TCW40_DEV_WIDTH
1002
{
1040
-3.0
1002
}
1001
TCAD
1000
TCW_ATTRIBUTE
1002
{
1000
<3>
1002
}
  0
LINE
  5
48
100
AcDbEntity
  8
0
  6
Continuous
 62
           7
100
AcDbLine
 10
7.084721519545
 20
3.949121873037
 30
0.0
 11
7.084721519545
 21
3.353160768062
 31
0.0
1001
ACAD
1000
TCW40_DEV_WIDTH
1002
{
1040
-3.0
1002
}
1001
TCAD
1000
TCW_ATTRIBUTE
1002
{
1000
<3>
1002
}
  0
LWPOLYLINE
  5
49
100
AcDbEntity
  8
0
  6
Continuous
 62
           7
100
AcDbPolyline
 90
        4
 70
           0
 10
4.186288916133
 20
3.478160768062
 10
4.186288916133
 20
3.478160768062
 10
4.186288916133
 20
3.478160768062
 10
5.573005217839
 20
3.478160768062
1001
ACAD
1000
TCW40_DEV_WIDTH
1002
{
1040
-3.0
1002
}
1001
TCAD
1000
TCW_ATTRIBUTE
1002
{
1000
<3>
1002
}
  0
LWPOLYLINE
  5
4A
100
AcDbEntity
  8
0
  6
Continuous
 62
           7
100
AcDbPolyline
 90
        4
 70
           0
 10
6.959721519545
 20
3.478160768062
 10
6.959721519545
 20
3.478160768062
 10
6.959721519545
 20
3.478160768062
 10
5.573005217839
 20
3.478160768062
1001
ACAD
1000
TCW40_DEV_WIDTH
1002
{
1040
-3.0
1002
}
1001
TCAD
1000
TCW_ATTRIBUTE
1002
{
1000
<3>
1002
}
  0
LWPOLYLINE
  5
4D
100
AcDbEntity
  8
0
  6
Continuous
 62
           7
100
AcDbPolyline
 90
        4
 70
           0
 10
4.061288916133
 20
3.478160768062
 40
0.0
 41
0.0
 10
4.186288916133
 20
3.461910768062
 40
0.0
 41
0.0
 10
4.186288916133
 20
3.494410768062
 40
0.0
 41
0.0
 10
4.061288916133
 20
3.478160768062
 40
0.0
 41
0.0
1001
ACAD
1000
TCW40_DEV_WIDTH
1002
{
1040
-3.0
1002
}
1001
TCAD
1000
TCW_ATTRIBUTE
1002
{
1000
<3>
1002
}
  0
HATCH
  5
4B
100
AcDbEntity
  8
0
  6
Continuous
 62
           7
100
AcDbHatch
 10
0.0
 20
0.0
 30
0.0
210
0.0
220
0.0
230
1.0
  2
SOLID
 70
           1
 71
           1
 91
        1
 92
        3
 72
           0
 73
           1
 93
        3
 10
4.0612889161329999
 20
3.4781607680620001
 10
4.1862889161329999
 20
3.4619107680620003
 10
4.1862889161329999
 20
3.494410768062
 97
        1
330
4C
 75
           0
 76
           0
 98
        0
1001
TCAD
1000
TCW_ATTRIBUTE
1002
{
1000
<3>
1002
}
  0
LWPOLYLINE
  5
50
100
AcDbEntity
  8
0
  6
Continuous
 62
           7
100
AcDbPolyline
 90
        4
 70
           0
 10
7.084721519545
 20
3.478160768062
 40
0.0
 41
0.0
 10
6.959721519545
 20
3.494410768062
 40
0.0
 41
0.0
 10
6.959721519545
 20
3.461910768062
 40
0.0
 41
0.0
 10
7.084721519545
 20
3.478160768062
 40
0.0
 41
0.0
1001
ACAD
1000
TCW40_DEV_WIDTH
1002
{
1040
-3.0
1002
}
1001
TCAD
1000
TCW_ATTRIBUTE
1002
{
1000
<3>
1002
}
  0
HATCH
  5
4E
100
AcDbEntity
  8
0
  6
Continuous
 62
           7
100
AcDbHatch
 10
0.0
 20
0.0
 30
0.0
210
0.0
220
0.0
230
1.0
  2
SOLID
 70
           1
 71
           1
 91
        1
 92
        3
 72
           0
 73
           1
 93
        3
 10
7.084721519545
 20
3.4781607680620001
 10
6.959721519545
 20
3.494410768062
 10
6.959721519545
 20
3.4619107680620003
 97
        1
330
4F
 75
           0
 76
           0
 98
        0
1001
TCAD
1000
TCW_ATTRIBUTE
1002
{
1000
<3>
1002
}
  0
MTEXT
  5
51
100
AcDbEntity
  8
0
  6
Continuous
 62
           7
100
AcDbMText
 10
5.573005217839
 20
3.63788299194
 30
0.0
 40
0.116666668653
 41
0.0
 71
           5
 72
           1
  1
\A1;3{}in
  7
_TCW_TXTSTY_1
 73
           1
 44
1.0
1001
TCAD
1000
TCW_REFPOINT
1002
{
1010
5.573005217839
1020
3.63788299194
1030
0.0
1002
}
1000
TCW_ATTRIBUTE
1002
{
1000
<3>
1002
}
  0
ENDBLK
  5
52
100
AcDbEntity
  8
0
100
AcDbBlockEnd
  0
BLOCK
  5
65
100
AcDbEntity
  8
0
100
AcDbBlockBegin
  2
*D1
 70
           1
 10
0.0
 20
0.0
 30
0.0
  3
*D1
  1

  0
LINE
  5
66
100
AcDbEntity
  8
0
  6
Continuous
 62
           7
100
AcDbLine
 10
4.000099053405
 20
5.013733419446
 30
0.0
 11
3.296114713535
 21
5.013733419446
 31
0.0
1001
ACAD
1000
TCW40_DEV_WIDTH
1002
{
1040
-3.0
1002
}
1001
TCAD
1000
TCW_ATTRIBUTE
1002
{
1000
<1>
1002
}
  0
LINE
  5
67
100
AcDbEntity
  8
0
  6
Continuous
 62
           7
100
AcDbLine
 10
4.003845027689
 20
3.987043826712
 30
0.0
 11
3.296114713535
 21
3.987043826712
 31
0.0
1001
ACAD
1000
TCW40_DEV_WIDTH
1002
{
1040
-3.0
1002
}
1001
TCAD
1000
TCW_ATTRIBUTE
1002
{
1000
<1>
1002
}
  0
LWPOLYLINE
  5
68
100
AcDbEntity
  8
0
  6
Continuous
 62
           7
100
AcDbPolyline
 90
        4
 70
           0
 10
3.421114713535
 20
4.888733419446
 10
3.421114713535
 20
4.888733419446
 10
3.421114713535
 20
4.888733419446
 10
3.421114713535
 20
4.660110846957
1001
ACAD
1000
TCW40_DEV_WIDTH
1002
{
1040
-3.0
1002
}
1001
TCAD
1000
TCW_ATTRIBUTE
1002
{
1000
<1>
1002
}
  0
LWPOLYLINE
  5
69
100
AcDbEntity
  8
0
  6
Continuous
 62
           7
100
AcDbPolyline
 90
        4
 70
           0
 10
3.421114713535
 20
4.112043826712
 10
3.421114713535
 20
4.112043826712
 10
3.421114713535
 20
4.112043826712
 10
3.421114713535
 20
4.340666399201
1001
ACAD
1000
TCW40_DEV_WIDTH
1002
{
1040
-3.0
1002
}
1001
TCAD
1000
TCW_ATTRIBUTE
1002
{
1000
<1>
1002
}
  0
LWPOLYLINE
  5
6C
100
AcDbEntity
  8
0
  6
Continuous
 62
           7
100
AcDbPolyline
 90
        4
 70
           0
 10
3.421114713535
 20
5.013733419446
 40
0.0
 41
0.0
 10
3.404864713535
 20
4.888733419446
 40
0.0
 41
0.0
 10
3.437364713535
 20
4.888733419446
 40
0.0
 41
0.0
 10
3.421114713535
 20
5.013733419446
 40
0.0
 41
0.0
1001
ACAD
1000
TCW40_DEV_WIDTH
1002
{
1040
-3.0
1002
}
1001
TCAD
1000
TCW_ATTRIBUTE
1002
{
1000
<1>
1002
}
  0
HATCH
  5
6A
100
AcDbEntity
  8
0
  6
Continuous
 62
           7
100
AcDbHatch
 10
0.0
 20
0.0
 30
0.0
210
0.0
220
0.0
230
1.0
  2
SOLID
 70
           1
 71
           1
 91
        1
 92
        3
 72
           0
 73
           1
 93
        3
 10
3.4211147135350002
 20
5.0137334194459999
 10
3.4048647135350003
 20
4.8887334194459999
 10
3.4373647135350001
 20
4.8887334194459999
 97
        1
330
6B
 75
           0
 76
           0
 98
        0
1001
TCAD
1000
TCW_ATTRIBUTE
1002
{
1000
<1>
1002
}
  0
LWPOLYLINE
  5
6F
100
AcDbEntity
  8
0
  6
Continuous
 62
           7
100
AcDbPolyline
 90
        4
 70
           0
 10
3.421114713535
 20
3.987043826712
 40
0.0
 41
0.0
 10
3.437364713535
 20
4.112043826712
 40
0.0
 41
0.0
 10
3.404864713535
 20
4.112043826712
 40
0.0
 41
0.0
 10
3.421114713535
 20
3.987043826712
 40
0.0
 41
0.0
1001
ACAD
1000
TCW40_DEV_WIDTH
1002
{
1040
-3.0
1002
}
1001
TCAD
1000
TCW_ATTRIBUTE
1002
{
1000
<1>
1002
}
  0
HATCH
  5
6D
100
AcDbEntity
  8
0
  6
Continuous
 62
           7
100
AcDbHatch
 10
0.0
 20
0.0
 30
0.0
210
0.0
220
0.0
230
1.0
  2
SOLID
 70
           1
 71
           1
 91
        1
 92
        3
 72
           0
 73
           1
 93
        3
 10
3.4211147135350002
 20
3.9870438267120001
 10
3.4373647135350001
 20
4.1120438267120001
 10
3.4048647135350003
 20
4.1120438267120001
 97
        1
330
6E
 75
           0
 76
           0
 98
        0
1001
TCAD
1000
TCW_ATTRIBUTE
1002
{
1000
<1>
1002
}
  0
MTEXT
  5
70
100
AcDbEntity
  8
0
  6
Continuous
 62
           7
100
AcDbMText
 10
3.421114713535
 20
4.500388623079
 30
0.0
 40
0.116666668653
 41
0.0
 71
           5
 72
           1
  1
\A1;1{}in
  7
_TCW_TXTSTY_1
 73
           1
 44
1.0
1001
TCAD
1000
TCW_REFPOINT
1002
{
1010
3.421114713535
1020
4.500388623079
1030
0.0
1002
}
1000
TCW_ATTRIBUTE
1002
{
1000
<1>
1002
}
  0
ENDBLK
  5
71
100
AcDbEntity
  8
0
100
AcDbBlockEnd
  0
ENDSEC
  0
SECTION
  2
ENTITIES
  0
VIEWPORT
  5
37
100
AcDbEntity
 67
           1
  8
0
100
AcDbViewport
 10
5.1914367468
 20
3.3834325455
 30
0.0
 40
6.2021232024
 41
3.3503430804
 68
           1
 69
           1
 12
5.1914367468
 22
3.3834325455
 13
0.0
 23
0.0
 14
0.5
 24
0.5
 15
0.5
 25
0.5
 16
0.0
 26
0.0
 36
1.0
 17
0.0
 27
0.0
 37
0.0
 42
50.0
 43
0.0
 44
0.0
 45
3.3503430804
 50
0.0
 51
0.0
 72
         100
 90
    32800
340
0
  1

281
           0
 71
           0
 74
           1
110
0.0
120
0.0
130
0.0
111
1.0
121
0.0
131
0.0
112
0.0
122
1.0
132
0.0
345
0
346
0
 79
           0
146
0.0
  0
TEXT
  5
38
100
AcDbEntity
 67
           1
  8
0
  6
Continuous
 62
           7
100
AcDbText
 10
4.836989596406
 20
2.494137161864
 30
0.0
 40
0.133333003521
  1
# 1185
  7
_TCW_TXTSTY_1
 11
4.836989596406
 21
2.627470165385
 31
0.0
100
AcDbText
 73
           3
1001
TCAD
1000
TCW40_TEXT
1002
{
1000
Times New Roman
1070
           0
1070
         257
1002
}
  0
MTEXT
  5
3A
100
AcDbEntity
 67
           1
  8
0
  6
Continuous
 62
           7
100
AcDbMText
 10
4.836989596406
 20
2.032190829515
 30
0.0
 40
0.08749999702
 41
1.350353
 71
           1
 72
           1
  1
{Saroyan Lumber Co.\P(800) 624-9309}
  7
_TCW_TXTSTY_2
 73
           1
 44
1.0
1001
TCAD
1000
TCW_REFPOINT
1002
{
1010
4.836989596406
1020
2.032190829515
1030
0.0
1002
}
1000
TCW40_TEXT
1002
{
1000
Times New Roman
1070
           0
1070
         257
1002
}
  0
TEXT
  5
3B
100
AcDbEntity
 67
           1
  8
0
  6
Continuous
 62
           7
100
AcDbText
 10
4.836697596406
 20
2.097591160862
 30
0.0
 40
0.10000000298
  1
1 (25mm) x 3
  7
_TCW_TXTSTY_1
 11
4.836697596406
 21
2.197591163842
 31
0.0
100
AcDbText
 73
           3
1001
TCAD
1000
TCW_REFPOINT
1002
{
1010
4.836697596406
1020
2.230924163842
1030
0.0
1002
}
1000
TCW40_TEXT
1002
{
1000
Times New Roman
1070
           0
1070
         257
1002
}
  0
LINE
  5
3C
100
AcDbEntity
 67
           1
  8
0
370
          35
  6
Continuous
 62
           7
100
AcDbLine
 10
6.591144190627
 20
4.396451640359
 30
0.0
 11
5.512249302121
 21
4.396451640359
 31
0.0
1001
ACAD
1000
TCW40_DEV_WIDTH
1002
{
1040
0.013779527508
1002
}
1001
TCAD
1000
TCW_CUSTOM_DATA
1002
{
1000
#$AUX@_ToolInfo Properties
1070
           8
1000
Modify^ JMeet2Lines@Meet2Lines
1002
}
  0
LINE
  5
3D
100
AcDbEntity
 67
           1
  8
0
370
          35
  6
Continuous
 62
           7
100
AcDbLine
 10
4.63927159607
 20
5.013473947367
 30
0.0
 11
4.066345027689
 21
5.013473947367
 31
0.0
1001
ACAD
1000
TCW40_DEV_WIDTH
1002
{
1040
0.013779527508
1002
}
1001
TCAD
1000
TCW_CUSTOM_DATA
1002
{
1000
#$AUX@_ToolInfo Properties
1070
           8
1000
Modify^ JMeet2Lines@Meet2Lines
1002
}
  0
LINE
  5
3E
100
AcDbEntity
 67
           1
  8
0
370
          35
  6
Continuous
 62
           7
100
AcDbLine
 10
4.63927159607
 20
5.013473947367
 30
0.0
 11
4.63927159607
 21
4.796066106799
 31
0.0
1001
ACAD
1000
TCW40_DEV_WIDTH
1002
{
1040
0.013779527508
1002
}
1001
TCAD
1000
TCW_CUSTOM_DATA
1002
{
1000
#$AUX@_ToolInfo Properties
1070
           8
1000
Modify^  JMeet2Lines@Meet2Lines
1002
}
  0
LINE
  5
3F
100
AcDbEntity
 67
           1
  8
0
370
          35
  6
Continuous
 62
           7
100
AcDbLine
 10
4.693601644133
 20
4.796066106799
 30
0.0
 11
4.63927159607
 21
4.796066106799
 31
0.0
1001
ACAD
1000
TCW40_DEV_WIDTH
1002
{
1040
0.013779527508
1002
}
1001
TCAD
1000
TCW_CUSTOM_DATA
1002
{
1000
#$AUX@_ToolInfo Properties
1070
           8
1000
Modify^  JMeet2Lines@Meet2Lines
1002
}
  0
ELLIPSE
  5
40
100
AcDbEntity
 67
           1
  8
0
370
          35
  6
Continuous
 62
           7
100
AcDbEllipse
 10
4.959357043697
 20
4.729554267081
 30
0.0
 11
0.0
 21
-0.2895891445767575
 31
0.0
210
0.0
220
0.0
230
1.0
 40
0.942904732966
 41
1.726786165262967
 42
4.4806436303941899
1001
ACAD
1000
TCW40_DEV_WIDTH
1002
{
1040
0.013779527508
1002
}
1001
TCAD
1000
TCW_CUSTOM_DATA
1002
{
1000
#$AUX@_ToolInfo Properties
1070
           8
1000
Insert^  JArc^  JTriplePoint132@Arc TriplePoint132
1002
}
  0
LINE
  5
41
100
AcDbEntity
 67
           1
  8
0
370
          35
  6
Continuous
 62
           7
100
AcDbLine
 10
5.512249302121
 20
4.519964803177
 30
0.0
 11
5.512249302121
 21
4.396451640359
 31
0.0
1001
ACAD
1000
TCW40_DEV_WIDTH
1002
{
1040
0.013779527508
1002
}
1001
TCAD
1000
TCW_CUSTOM_DATA
1002
{
1000
#$AUX@_ToolInfo Properties
1070
           8
1000
Modify^  JMeet2Lines@Meet2Lines
1002
}
  0
ARC
  5
42
100
AcDbEntity
 67
           1
  8
0
370
          35
  6
Continuous
 62
           7
100
AcDbCircle
 10
5.494124591942
 20
5.057139760691
 30
0.0
 40
0.537480641605
100
AcDbArc
 50
-99.74363060844
 51
-88.067527955706
1001
ACAD
1000
TCW40_DEV_WIDTH
1002
{
1040
0.013779527508
1002
}
1001
TCAD
1000
TCW_CUSTOM_DATA
1002
{
1000
#$AUX@_ToolInfo Properties
1070
           8
1000
Insert^  JArc^  JTriplePoint132@Arc TriplePoint132
1002
}
  0
ARC
  5
43
100
AcDbEntity
 67
           1
  8
0
370
          35
  6
Continuous
 62
           7
100
AcDbCircle
 10
5.850445089673
 20
4.889101153916
 30
0.0
 40
0.631586332078
100
AcDbArc
 50
-170.083132591525
 51
-154.518311044095
1001
ACAD
1000
TCW40_DEV_WIDTH
1002
{
1040
0.013779527508
1002
}
1001
TCAD
1000
TCW_CUSTOM_DATA
1002
{
1000
#$AUX@_ToolInfo Properties
1070
           8
1000
Insert^  JArc^  JTriplePoint132@Arc TriplePoint132
1002
}
  0
ELLIPSE
  5
44
100
AcDbEntity
 67
           1
  8
0
370
          35
  6
Continuous
 62
           7
100
AcDbEllipse
 10
5.445125089057
 20
4.710364702755
 30
0.0
 11
0.1897820477679737
 21
0.0
 31
0.0
210
0.0
220
0.0
230
1.0
 40
0.988480149939
 41
-2.6229824364873227
 42
-1.7937541217395871
1001
ACAD
1000
TCW40_DEV_WIDTH
1002
{
1040
0.013779527508
1002
}
1001
TCAD
1000
TCW_CUSTOM_DATA
1002
{
1000
#$AUX@_ToolInfo Properties
1070
           8
1000
Insert^  JArc^  JTriplePoint132@Arc TriplePoint132
1002
}
  0
DIMENSION
  5
53
100
AcDbEntity
 67
           1
  8
0
  6
Continuous
 62
           7
100
AcDbDimension
  2
*D0
 10
7.084721519545
 20
3.478160768062
 30
0.0
 11
5.573005217839
 21
3.63788299194
 31
0.0
 71
           5
 72
           1
 41
1.0
 42
0.0
  1
<3>
  3
STANDARD
100
AcDbAlignedDimension
 13
4.061288916133
 23
3.960103700614
 33
0.0
 14
7.084721519545
 24
4.011621873037
 34
0.0
100
AcDbRotatedDimension
1001
TCAD
1000
TCW_CUSTOM_DATA
1002
{
1000
#$AUX@_ToolInfo Properties
1070
           8
1000
Insert^  JDimension^  JOrthogonal@Dimension Orthogonal
1002
}
1001
ACAD
1000
DSTYLE
1002
{
1002
}
  0
LINE
  5
54
100
AcDbEntity
 67
           1
  8
0
370
          35
  6
Continuous
 62
           7
100
AcDbLine
 10
4.521822419271
 20
3.987043826712
 30
0.0
 11
4.066345027689
 21
3.987043826712
 31
0.0
1001
ACAD
1000
TCW40_DEV_WIDTH
1002
{
1040
0.013779527508
1002
}
1001
TCAD
1000
TCW_REFPOINT
1002
{
1010
4.33537469987
1020
3.987043826712
1030
0.0
1002
}
1000
TCW_CUSTOM_DATA
1002
{
1000
#$AUX@_ToolInfo Properties
1070
           8
1000
Modify^  JMeet2Lines@Meet2Lines
1002
}
  0
ARC
  5
55
100
AcDbEntity
 67
           1
  8
0
370
          35
  6
Continuous
 62
          30
100
AcDbCircle
 10
4.569267715183
 20
4.043199220533
 30
0.0
 40
0.008936084481
100
AcDbArc
 50
-90.286478455631
 51
-89.713525435079
1001
ACAD
1000
TCW40_DEV_WIDTH
1002
{
1040
0.013779527508
1002
}
1001
TCAD
1000
TCW_CUSTOM_DATA
1002
{
1000
#$AUX@_ToolInfo Properties
1070
           8
1000
Insert^  JArc^  JTriplePoint132@Arc TriplePoint132
1002
}
  0
LINE
  5
56
100
AcDbEntity
 67
           1
  8
0
370
          35
  6
Continuous
 62
           7
100
AcDbLine
 10
6.380305961764
 20
4.034263247752
 30
0.0
 11
4.572862848686
 21
4.034263247752
 31
0.0
1001
ACAD
1000
TCW40_DEV_WIDTH
1002
{
1040
0.013779527508
1002
}
  0
ARC
  5
57
100
AcDbEntity
 67
           1
  8
0
370
          35
  6
Continuous
 62
           7
100
AcDbCircle
 10
4.570947120118
 20
3.985138969664
 30
0.0
 40
0.049161618298
100
AcDbArc
 50
87.7667342186
 51
177.779414089111
1001
ACAD
1000
TCW40_DEV_WIDTH
1002
{
1040
0.013779527508
1002
}
1001
TCAD
1000
TCW_CUSTOM_DATA
1002
{
1000
#$AUX@_ToolInfo Properties
1070
           8
1000
Insert^  JArc^  JTriplePoint132@Arc TriplePoint132
1002
}
  0
LINE
  5
58
100
AcDbEntity
 67
           1
  8
0
370
          35
  6
Continuous
 62
           7
100
AcDbLine
 10
7.080144606772
 20
3.984244665612
 30
0.0
 11
6.460427794492
 21
3.984244665612
 31
0.0
1001
ACAD
1000
TCW40_DEV_WIDTH
1002
{
1040
0.013779527508
1002
}
1001
TCAD
1000
TCW_CUSTOM_DATA
1002
{
1000
#$AUX@_ToolInfo Properties
1070
           8
1000
Modify^  JMeet2Lines@Meet2Lines
1002
}
  0
ELLIPSE
  5
59
100
AcDbEntity
 67
           1
  8
0
370
          35
  6
Continuous
 62
           7
100
AcDbEllipse
 10
6.377357106034
 20
3.949085741648
 30
0.0
 11
0.0912830165491286
 21
0.0
 31
0.0
210
0.0
220
0.0
230
1.0
 40
0.929152156093
 41
0.4274292012784779
 42
1.5370701526829385
1001
ACAD
1000
TCW40_DEV_WIDTH
1002
{
1040
0.013779527508
1002
}
1001
TCAD
1000
TCW_CUSTOM_DATA
1002
{
1000
#$AUX@_ToolInfo Properties
1070
           8
1000
Insert^  JArc^  JTriplePoint132@Arc TriplePoint132
1002
}
  0
LINE
  5
5A
100
AcDbEntity
 67
           1
  8
0
370
          35
  6
Continuous
 62
           7
100
AcDbLine
 10
7.080144606772
 20
4.202139452106
 30
0.0
 11
7.080144606772
 21
3.984244665612
 31
0.0
1001
ACAD
1000
TCW40_DEV_WIDTH
1002
{
1040
0.013779527508
1002
}
1001
TCAD
1000
TCW_CUSTOM_DATA
1002
{
1000
#$AUX@_ToolInfo Properties
1070
           8
1000
Modify^  JMeet2Lines@Meet2Lines
1002
}
  0
TEXT
  5
5C
100
AcDbEntity
 67
           1
  8
0
  6
Continuous
 62
           7
100
AcDbText
 10
4.140536465823
 20
4.097517859344
 30
0.0
 40
0.058333334327
  1
© 2007 The Premium Series
  7
_TCW_TXTSTY_3
 11
4.140536465823
 21
4.155851193671
 31
0.0
100
AcDbText
 73
           3
1001
TCAD
1000
TCW40_TEXT
1002
{
1000
AvantGarde Bk BT
1070
           1
1070
         257
1002
}
  0
LINE
  5
5D
100
AcDbEntity
 67
           1
  8
0
370
          35
  6
Continuous
 62
           7
100
AcDbLine
 10
4.066345027689
 20
3.987043826712
 30
0.0
 11
4.066345027689
 21
5.013473947367
 31
0.0
1001
ACAD
1000
TCW40_DEV_WIDTH
1002
{
1040
0.013779527508
1002
}
1001
TCAD
1000
TCW_REFPOINT
1002
{
1010
4.066345027689
1020
4.400308180889
1030
0.0
1002
}
1000
TCW_CUSTOM_DATA
1002
{
1000
#$AUX@_ToolInfo Properties
1070
           8
1000
Modify^ JMeet2Lines@Meet2Lines
1002
}
  0
LINE
  5
5E
100
AcDbEntity
 67
           1
  8
0
370
          35
  6
Continuous
 62
           7
100
AcDbLine
 10
6.654198306659
 20
4.31692585292
 30
0.0
 11
6.591144190627
 21
4.31692585292
 31
0.0
1001
ACAD
1000
TCW40_DEV_WIDTH
1002
{
1040
0.013779527508
1002
}
1001
TCAD
1000
TCW_CUSTOM_DATA
1002
{
1000
#$AUX@_ToolInfo Properties
1070
           8
1000
Modify^ JMeet2Lines@Meet2Lines
1002
}
  0
ELLIPSE
  5
5F
100
AcDbEntity
 67
           1
  8
0
370
          35
  6
Continuous
 62
           7
100
AcDbEllipse
 10
6.816871870406
 20
4.335026509712
 30
0.0
 11
0.0
 21
-0.233008496776322
 31
0.0
210
0.0
220
0.0
230
1.0
 40
0.700260419117
 41
1.8019243201758466
 42
4.7901497125238048
1001
ACAD
1000
TCW40_DEV_WIDTH
1002
{
1040
0.013779527508
1002
}
1001
TCAD
1000
TCW_CUSTOM_DATA
1002
{
1000
#$AUX@_ToolInfo Properties
1070
           8
1000
Insert^  JArc^  JTriplePoint132@Arc TriplePoint132
1002
}
  0
LINE
  5
60
100
AcDbEntity
 67
           1
  8
0
370
          35
  6
Continuous
 62
           7
100
AcDbLine
 10
6.591144190627
 20
4.396451640359
 30
0.0
 11
6.591144190627
 21
4.31692585292
 31
0.0
1001
ACAD
1000
TCW40_DEV_WIDTH
1002
{
1040
0.013779527508
1002
}
1001
TCAD
1000
TCW_CUSTOM_DATA
1002
{
1000
#$AUX@_ToolInfo Properties
1070
           8
1000
Modify^ JMeet2Lines@Meet2Lines
1002
}
  0
ARC
  5
61
100
AcDbEntity
 67
           1
  8
0
370
          35
  6
Continuous
 62
           7
100
AcDbCircle
 10
7.701235495437
 20
4.426537669498
 30
0.0
 40
0.726537320129
100
AcDbArc
 50
-176.991269279829
 51
-169.766796432177
1001
ACAD
1000
TCW40_DEV_WIDTH
1002
{
1040
0.013779527508
1002
}
1001
TCAD
1000
TCW_CUSTOM_DATA
1002
{
1000
#$AUX@_ToolInfo Properties
1070
           8
1000
Insert^ JArc^ JTriplePoint132@Arc TriplePoint132
1002
}
  0
ARC
  5
62
100
AcDbEntity
 67
           1
  8
0
370
          35
  6
Continuous
 62
           7
100
AcDbCircle
 10
7.103545618553
 20
4.311364145863
 30
0.0
 40
0.118110994184
100
AcDbArc
 50
-173.241670685797
 51
-123.355469975247
1001
ACAD
1000
TCW40_DEV_WIDTH
1002
{
1040
0.013779527508
1002
}
1001
TCAD
1000
TCW_CUSTOM_DATA
1002
{
1000
#$AUX@_ToolInfo Properties
1070
           8
1000
Insert^ JArc^ JTriplePoint132@Arc TriplePoint132
1002
}
  0
ARC
  5
63
100
AcDbEntity
 67
           1
  8
0
370
          35
  6
Continuous
 62
           7
100
AcDbCircle
 10
7.083059642962
 20
4.300511409531
 30
0.0
 40
0.098415138285
100
AcDbArc
 50
-116.853510814192
 51
-91.697337475376
1001
ACAD
1000
TCW40_DEV_WIDTH
1002
{
1040
0.013779527508
1002
}
1001
TCAD
1000
TCW_CUSTOM_DATA
1002
{
1000
#$AUX@_ToolInfo Properties
1070
           8
1000
Insert^ JArc^ JTriplePoint132@Arc TriplePoint132
1002
}
  0
DIMENSION
  5
72
100
AcDbEntity
 67
           1
  8
0
  6
Continuous
 62
           7
100
AcDbDimension
  2
*D1
 10
3.421114713535
 20
3.987043826712
 30
0.0
 11
3.421114713535
 21
4.500388623079
 31
0.0
 71
           5
 72
           1
 41
1.0
 42
0.0
  1
<1>
  3
STANDARD
100
AcDbAlignedDimension
 13
4.062599053405
 23
5.013733419446
 33
0.0
 14
4.066345027689
 24
3.987043826712
 34
0.0
 50
90.0
100
AcDbRotatedDimension
1001
TCAD
1000
TCW_CUSTOM_DATA
1002
{
1000
#$AUX@_ToolInfo Properties
1070
           8
1000
Insert^ JDimension^ JOrthogonal@Dimension Orthogonal
1002
}
1001
ACAD
1000
DSTYLE
1002
{
1002
}
  0
TEXT
  5
73
100
AcDbEntity
 67
           1
  8
0
  6
Continuous
 62
           7
100
AcDbText
 10
4.79681255973
 20
2.297016344241
 30
0.0
 40
0.10000000298
  1
Modified 6/13/07
  7
_TCW_TXTSTY_1
 11
4.79681255973
 21
2.397016347221
 31
0.0
100
AcDbText
 73
           3
1001
TCAD
1000
TCW_REFPOINT
1002
{
1010
4.79681255973
1020
2.430349347221
1030
0.0
1002
}
1000
TCW40_TEXT
1002
{
1000
Times New Roman
1070
           0
1070
         257
1002
}
  0
ENDSEC
  0
SECTION
  2
OBJECTS
  0
DICTIONARY
  5
19
100
AcDbDictionary
280
           0
281
           1
  3
ACAD_GROUP
350
1A
  3
ACAD_MLINESTYLE
350
1B
  3
ACAD_LAYOUT
350
1E
  3
ACAD_PLOTSETTINGS
350
22
  3
ACAD_PLOTSTYLENAME
350
1F
  0
DICTIONARY
  5
1A
102
{ACAD_REACTORS
330
19
102
}
100
AcDbDictionary
280
           0
281
           1
  0
DICTIONARY
  5
1B
102
{ACAD_REACTORS
330
19
102
}
100
AcDbDictionary
280
           0
281
           1
  3
Standard
350
1C
  0
MLINESTYLE
  5
1C
100
AcDbMlineStyle
  2
STANDARD
 70
           0
  3

 62
         256
 51
90.0
 52
90.0
 71
           3
 49
0.25
 62
           7
  6
ByLayer
 49
0.0
 62
           7
  6
ByLayer
 49
-0.25
 62
           7
  6
ByLayer
  0
ACDBDICTIONARYWDFLT
  5
1F
102
{ACAD_REACTORS
330
19
102
}
100
AcDbDictionary
281
           1
  3
Normal
350
1D
100
AcDbDictionaryWithDefault
340
1D
  0
ACDBPLACEHOLDER
  5
1D
102
{ACAD_REACTORS
330
1F
102
}
  0
LAYOUT
  5
21
102
{ACAD_REACTORS
330
1E
102
}
100
AcDbPlotSettings
  1

  2

  4

  6

 40
0.0
 41
0.0
 42
0.0
 43
0.0
 44
0.0
 45
0.0
 46
0.0
 47
0.0
 48
0.0
 49
0.0
140
0.0
141
0.0
142
1.0
143
1.0
 70
           0
 72
           0
 73
           0
 74
           0
  7

 75
           0
147
1.0
148
0.0
149
0.0
100
AcDbLayout
  1
Layout1
 70
           0
 71
           0
 10
0.0
 20
0.0
 11
0.0
 21
0.0
 12
0.0
 22
0.0
 32
0.0
 14
0.0
 24
0.0
 34
0.0
 15
0.0
 25
0.0
 35
0.0
146
0.0
 13
0.0
 23
0.0
 33
0.0
 16
0.0
 26
0.0
 36
0.0
 17
0.0
 27
0.0
 37
0.0
 76
           0
330
B
331
0
345
0
346
0
  0
DICTIONARY
  5
1E
102
{ACAD_REACTORS
330
19
102
}
100
AcDbDictionary
280
           0
281
           1
  3
Model
350
36
  3
Paper 1
350
74
  0
DICTIONARY
  5
22
102
{ACAD_REACTORS
330
19
102
}
100
AcDbDictionary
280
           0
281
           1
  0
LAYOUT
  5
36
100
AcDbPlotSettings
  1

  2

  4

  6

 40
0.0
 41
0.0
 42
0.0
 43
0.0
 44
0.0
 45
0.0
 46
0.0
 47
0.0
 48
0.0
 49
0.0
140
0.0
141
0.0
142
1.0
143
1.0
 70
           0
 72
           0
 73
           0
 74
           0
  7

 75
           0
147
1.0
148
0.0
149
0.0
100
AcDbLayout
  1
Model
 70
           0
 71
           0
 10
0.0
 20
0.0
 11
0.0
 21
0.0
 12
0.0
 22
0.0
 32
0.0
 14
0.0
 24
0.0
 34
0.0
 15
0.0
 25
0.0
 35
0.0
146
0.0
 13
0.0
 23
0.0
 33
0.0
 16
0.0
 26
0.0
 36
0.0
 17
0.0
 27
0.0
 37
0.0
 76
           0
330
A
331
0
345
0
346
0
  0
LAYOUT
  5
74
100
AcDbPlotSettings
  1

  2

  4

  6

 40
0.0
 41
0.0
 42
0.0
 43
0.0
 44
215.9
 45
279.4
 46
-31.75
 47
31.75
 48
0.0
 49
0.0
140
0.0
141
0.0
142
1.0
143
1.0
 70
           0
 72
           0
 73
           0
 74
           0
  7

 75
           0
147
1.0
148
0.0
149
0.0
100
AcDbLayout
  1
Paper 1
 70
           1
 71
           1
 10
31.75
 20
-31.75
 11
247.65
 21
247.65
 12
0.0
 22
0.0
 32
0.0
 14
0.0
 24
0.0
 34
0.0
 15
0.0
 25
0.0
 35
0.0
146
0.0
 13
0.0
 23
0.0
 33
0.0
 16
0.0
 26
0.0
 36
0.0
 17
0.0
 27
0.0
 37
0.0
 76
           0
330
B
331
37
345
0
346
0
  0
ENDSEC
  0
EOF
