  0
SECTION
  2
HEADER
  9
$ACADVER
  1
AC1014
  9
$ACADMAINTVER
 70
  0
  9
$DWGCODEPAGE
  3
ANSI_1252
  9
$INSBASE
 10
0.0
 20
0.0
 30
0.0
  9
$EXTMIN
 10
14.61
 20
-3.225
 30
0.0
  9
$EXTMAX
 10
23.027
 20
0.354
 30
0.0
  9
$LIMMIN
 10
1.108
 20
-6.62
  9
$LIMMAX
 10
15.108
 20
5.38
  9
$ORTHOMODE
 70
  0
  9
$REGENMODE
 70
  1
  9
$FILLMODE
 70
  1
  9
$QTEXTMODE
 70
  0
  9
$MIRRTEXT
 70
  1
  9
$DRAGMODE
 70
  0
  9
$LTSCALE
 40
1.0
  9
$OSMODE
 70
  0
  9
$ATTMODE
 70
  1
  9
$TEXTSIZE
 40
0.5
  9
$TRACEWID
 40
1.0
  9
$TEXTSTYLE
  7
STANDARD
  9
$CLAYER
  8
0
  9
$CELTYPE
  6
CONTINUOUS
  9
$CECOLOR
 62
  7
  9
$CELTSCALE
 40
1.0
  9
$DELOBJ
 70
  1
  9
$DISPSILH
 70
  0
  9
$DIMSCALE
 40
1.0
  9
$DIMASZ
 40
0.125
  9
$DIMEXO
 40
0.063
  9
$DIMDLI
 40
0.375
  9
$DIMRND
 40
0.0
  9
$DIMDLE
 40
0.0
  9
$DIMEXE
 40
0.125
  9
$DIMTP
 40
0.0
  9
$DIMTM
 40
0.0
  9
$DIMTXT
 40
0.117
  9
$DIMCEN
 40
0.09
  9
$DIMTSZ
 40
0.0
  9
$DIMTOL
 70
  0
  9
$DIMLIM
 70
  0
  9
$DIMTIH
 70
  1
  9
$DIMTOH
 70
  1
  9
$DIMSE1
 70
  0
  9
$DIMSE2
 70
  0
  9
$DIMTAD
 70
  1
  9
$DIMZIN
 70
  0
  9
$DIMBLK
  1

  9
$DIMASO
 70
  0
  9
$DIMSHO
 70
  1
  9
$DIMPOST
  1
<>in
  9
$DIMAPOST
  1
<>
  9
$DIMALT
 70
  0
  9
$DIMALTD
 70
  2
  9
$DIMALTF
 40
1.0
  9
$DIMLFAC
 40
1.0
  9
$DIMTOFL
 70
  1
  9
$DIMTVP
 40
0.0
  9
$DIMTIX
 70
  1
  9
$DIMSOXD
 70
  0
  9
$DIMSAH
 70
  0
  9
$DIMBLK1
  1

  9
$DIMBLK2
  1

  9
$DIMSTYLE
  2
STANDARD
  9
$DIMCLRD
 70
  7
  9
$DIMCLRE
 70
  7
  9
$DIMCLRT
 70
  7
  9
$DIMTFAC
 40
1.0
  9
$DIMGAP
 40
0.063
  9
$DIMJUST
 70
  0
  9
$DIMSD1
 70
  0
  9
$DIMSD2
 70
  0
  9
$DIMTOLJ
 70
  1
  9
$DIMTZIN
 70
  0
  9
$DIMALTZ
 70
  0
  9
$DIMALTTZ
 70
  0
  9
$DIMFIT
 70
  0
  9
$DIMUPT
 70
  0
  9
$DIMUNIT
 70
  5
  9
$DIMDEC
 70
  4
  9
$DIMTDEC
 70
  4
  9
$DIMALTU
 70
  2
  9
$DIMALTTD
 70
  2
  9
$DIMTXSTY
  7
STANDARD
  9
$DIMAUNIT
 70
  0
  9
$LUNITS
 70
  2
  9
$LUPREC
 70
  2
  9
$SKETCHINC
 40
1.0
  9
$FILLETRAD
 40
1.0
  9
$AUNITS
 70
  0
  9
$AUPREC
 70
  2
  9
$MENU
  1
acad
  9
$ELEVATION
 40
0.0
  9
$PELEVATION
 40
0.0
  9
$THICKNESS
 40
0.0
  9
$LIMCHECK
 70
  0
  9
$BLIPMODE
 70
  1
  9
$CHAMFERA
 40
0.0
  9
$CHAMFERB
 40
0.0
  9
$CHAMFERC
 40
0.0
  9
$CHAMFERD
 40
0.0
  9
$SKPOLY
 70
  0
  9
$TDCREATE
 40
0.000000000
  9
$TDUPDATE
 40
0.000000000
  9
$TDINDWG
 40
0.0000000000
  9
$TDUSRTIMER
 40
0.0000000000
  9
$USRTIMER
 70
  1
  9
$ANGBASE
 50
0.0
  9
$ANGDIR
 70
  0
  9
$PDMODE
 70
  0
  9
$PDSIZE
 40
0.0
  9
$PLINEWID
 40
0.0
  9
$COORDS
 70
  0
  9
$SPLFRAME
 70
  0
  9
$SPLINETYPE
 70
  5
  9
$SPLINESEGS
 70
 20
  9
$ATTDIA
 70
  0
  9
$ATTREQ
 70
  1
  9
$HANDLING
 70
  1
  9
$HANDSEED
  5
B7
  9
$SURFTAB1
 70
  6
  9
$SURFTAB2
 70
  6
  9
$SURFTYPE
 70
  6
  9
$SURFU
 70
  6
  9
$SURFV
 70
  6
  9
$UCSNAME
  2

  9
$UCSORG
 10
0.0
 20
0.0
 30
0.0
  9
$UCSXDIR
 10
1.0
 20
0.0
 30
0.0
  9
$UCSYDIR
 10
0.0
 20
1.0
 30
0.0
  9
$PUCSNAME
  2

  9
$PUCSORG
 10
0.0
 20
0.0
 30
0.0
  9
$PUCSXDIR
 10
1.0
 20
0.0
 30
0.0
  9
$PUCSYDIR
 10
0.0
 20
1.0
 30
0.0
  9
$USERI1
 70
  0
  9
$USERI2
 70
  0
  9
$USERI3
 70
  0
  9
$USERI4
 70
  0
  9
$USERI5
 70
  0
  9
$USERR1
 40
0.0
  9
$USERR2
 40
0.0
  9
$USERR3
 40
0.0
  9
$USERR4
 40
0.0
  9
$USERR5
 40
0.0
  9
$WORLDVIEW
 70
  1
  9
$SHADEDGE
 70
  3
  9
$SHADEDIF
 70
 70
  9
$TILEMODE
 70
  0
  9
$MAXACTVP
 70
 16
  9
$PINSBASE
 10
0.0
 20
0.0
 30
0.0
  9
$PLIMCHECK
 70
  0
  9
$PEXTMIN
 10
1.25
 20
-1.25
 30
0.0
  9
$PEXTMAX
 10
9.75
 20
9.75
 30
0.0
  9
$PLIMMIN
 10
1.25
 20
-1.25
  9
$PLIMMAX
 10
9.75
 20
9.75
  9
$UNITMODE
 70
  0
  9
$VISRETAIN
 70
  0
  9
$PLINEGEN
 70
  1
  9
$PSLTSCALE
 70
  1
  9
$TREEDEPTH
 70
3020
  9
$PICKSTYLE
 70
  1
  9
$CMLSTYLE
  2
STANDARD
  9
$CMLJUST
 70
  0
  9
$CMLSCALE
 40
1.0
  9
$PROXYGRAPHICS
 70
  0
  9
$MEASUREMENT
 70
  0
  0
ENDSEC
  0
SECTION
  2
CLASSES
  0
CLASS
  1
LWPOLYLINE
  2
AcDbPolyline
  3
"AutoCAD"
 90
        0
280
  0
281
  1
  0
CLASS
  1
IMAGE
  2
AcDbRasterImage
  3
ISM
 90
      127
280
  0
281
  1
  0
CLASS
  1
OLE2FRAME
  2
AcDbOle2Frame
  3
""
 90
        0
280
  0
281
  1
  0
CLASS
  1
HATCH
  2
AcDbHatch
  3
"ACAD_SEDONA"
 90
        0
280
  0
281
  1
  0
CLASS
  1
DICTIONARYVAR
  2
AcDbDictionaryVar
  3
"AutoCAD"
 90
        0
280
  0
281
  0
  0
CLASS
  1
RASTERVARIABLES
  2
AcDbRasterVariables
  3
ISM
 90
        0
280
  0
281
  0
  0
CLASS
  1
IMAGEDEF
  2
AcDbRasterImageDef
  3
ISM
 90
        0
280
  0
281
  0
  0
CLASS
  1
IMAGEDEF_REACTOR
  2
AcDbRasterImageDefReactor
  3
ISM
 90
        1
280
  0
281
  0
  0
CLASS
  1
IDBUFFER
  2
AcDbIdBuffer
  3
"Acad"
 90
        0
280
  0
281
  0
  0
CLASS
  1
SPATIAL_FILTER
  2
AcDbSpatialFilter
  3
"Acad"
 90
        0
280
  0
281
  0
  0
CLASS
  1
XRECORD
  2
AcDbXrecord
  3
"<Built In>"
 90
        0
280
  0
281
  0
  0
CLASS
  1
SORTENTSTABLE
  2
AcDbSortentsTable
  3
"AutoCAD"
 90
        0
280
  0
281
  0
  0
CLASS
  1
LAYER_INDEX
  2
AcDbLayerIndex
  3
"Acad"
 90
        0
280
  0
281
  0
  0
CLASS
  1
SPATIAL_INDEX
  2
AcDbSpatialIndex
  3
"Acad"
 90
        0
280
  0
281
  0
  0
CLASS
  1
OBJECT_PTR
  2
CAseDLPNTableRecord
  3
"ASE-LPNTableRecord"
 90
        1
280
  0
281
  0
  0
CLASS
  1
LAYOUT
  2
AcDbLayout
  3
"AutoCAD 2000"
 90
        1
280
  0
281
  0
  0
CLASS
  1
PLOTSETTINGS
  2
AcDbPlotSettings
  3
"AutoCAD 2000"
 90
        1
280
  0
281
  0
  0
CLASS
  1
ACDBDICTIONARYWDFLT
  2
AcDbDictionaryWithDefault
  3
"AutoCAD 2000"
 90
        1
280
  0
281
  0
  0
CLASS
  1
ACDBPLACEHOLDER
  2
AcDbPlaceHolder
  3
"AutoCAD 2000"
 90
        1
280
  0
281
  0
  0
ENDSEC
  0
SECTION
  2
TABLES
  0
TABLE
  2
VPORT
  5
7
100
AcDbSymbolTable
 70
  1
  0
VPORT
  5
15
100
AcDbSymbolTableRecord
100
AcDbViewportTableRecord
  2
*ACTIVE
 70
  0
 10
0.0
 20
0.0
 11
1.0
 21
1.0
 12
5.635
 22
3.356
 13
0.0
 23
0.0
 14
0.5
 24
0.5
 15
0.5
 25
0.5
 16
0.0
 26
0.0
 36
1.0
 17
0.0
 27
0.0
 37
0.0
 40
11.974
 41
1.71
 42
50.0
 43
0.0
 44
0.0
 50
0.0
 51
0.0
 71
  0
 72
100
 73
  1
 74
  1
 75
  0
 76
  0
 77
  0
 78
  0
  0
ENDTAB
  0
TABLE
  2
LTYPE
  5
4
100
AcDbSymbolTable
 70
 15
  0
LTYPE
  5
11
100
AcDbSymbolTableRecord
100
AcDbLinetypeTableRecord
  2
BYBLOCK
 70
 64
  3

 72
 65
 73
  0
 40
0.0
  0
LTYPE
  5
12
100
AcDbSymbolTableRecord
100
AcDbLinetypeTableRecord
  2
BYLAYER
 70
 64
  3

 72
 65
 73
  0
 40
0.0
  0
LTYPE
  5
13
100
AcDbSymbolTableRecord
100
AcDbLinetypeTableRecord
  2
CONTINUOUS
 70
 64
  3
Solid line
 72
 65
 73
  0
 40
0.0
  0
LTYPE
  5
1E
100
AcDbSymbolTableRecord
100
AcDbLinetypeTableRecord
  2
BORDER
 70
  0
  3
BORDER
 72
 65
 73
  6
 40
1.75
 49
0.5
 74
  0
 49
-0.25
 74
  0
 49
0.5
 74
  0
 49
-0.25
 74
  0
 49
0.0
 74
  0
 49
-0.25
 74
  0
  0
LTYPE
  5
1F
100
AcDbSymbolTableRecord
100
AcDbLinetypeTableRecord
  2
CENTER
 70
  0
  3
CENTER
 72
 65
 73
  4
 40
2.0
 49
1.25
 74
  0
 49
-0.25
 74
  0
 49
0.25
 74
  0
 49
-0.25
 74
  0
  0
LTYPE
  5
20
100
AcDbSymbolTableRecord
100
AcDbLinetypeTableRecord
  2
DASHDOT
 70
  0
  3
DASHDOT
 72
 65
 73
  4
 40
1.0
 49
0.5
 74
  0
 49
-0.25
 74
  0
 49
0.0
 74
  0
 49
-0.25
 74
  0
  0
LTYPE
  5
21
100
AcDbSymbolTableRecord
100
AcDbLinetypeTableRecord
  2
DASHED
 70
  0
  3
DASHED
 72
 65
 73
  2
 40
0.75
 49
0.5
 74
  0
 49
-0.25
 74
  0
  0
LTYPE
  5
22
100
AcDbSymbolTableRecord
100
AcDbLinetypeTableRecord
  2
DIVIDE
 70
  0
  3
DIVIDE
 72
 65
 73
  6
 40
1.25
 49
0.5
 74
  0
 49
-0.25
 74
  0
 49
0.0
 74
  0
 49
-0.25
 74
  0
 49
0.0
 74
  0
 49
-0.25
 74
  0
  0
LTYPE
  5
23
100
AcDbSymbolTableRecord
100
AcDbLinetypeTableRecord
  2
DOT
 70
  0
  3
DOT
 72
 65
 73
  2
 40
0.25
 49
0.0
 74
  0
 49
-0.25
 74
  0
  0
LTYPE
  5
24
100
AcDbSymbolTableRecord
100
AcDbLinetypeTableRecord
  2
HIDDEN
 70
  0
  3
HIDDEN
 72
 65
 73
  2
 40
0.375
 49
0.25
 74
  0
 49
-0.125
 74
  0
  0
LTYPE
  5
25
100
AcDbSymbolTableRecord
100
AcDbLinetypeTableRecord
  2
PHANTOM
 70
  0
  3
PHANTOM
 72
 65
 73
  6
 40
2.5
 49
1.25
 74
  0
 49
-0.25
 74
  0
 49
0.25
 74
  0
 49
-0.25
 74
  0
 49
0.25
 74
  0
 49
-0.25
 74
  0
  0
LTYPE
  5
26
100
AcDbSymbolTableRecord
100
AcDbLinetypeTableRecord
  2
$INVISIBLE
 70
  0
  3
$INVISIBLE
 72
 65
 73
  2
 40
200.0
 49
-100.0
 74
  0
 49
-100.0
 74
  0
  0
LTYPE
  5
27
100
AcDbSymbolTableRecord
100
AcDbLinetypeTableRecord
  2
$SNAPEXT
 70
  0
  3
$SNAPEXT
 72
 65
 73
  2
 40
0.04
 49
0.02
 74
  0
 49
-0.02
 74
  0
  0
LTYPE
  5
28
100
AcDbSymbolTableRecord
100
AcDbLinetypeTableRecord
  2
$CONSTRUCTION
 70
  0
  3
$CONSTRUCTION
 72
 65
 73
  4
 40
0.3
 49
0.2
 74
  0
 49
-0.05
 74
  0
 49
0.0
 74
  0
 49
-0.05
 74
  0
  0
LTYPE
  5
29
100
AcDbSymbolTableRecord
100
AcDbLinetypeTableRecord
  2
$AUXILIARY
 70
  0
  3
$AUXILIARY
 72
 65
 73
  2
 40
0.1
 49
0.05
 74
  0
 49
-0.05
 74
  0
  0
ENDTAB
  0
TABLE
  2
LAYER
  5
2
100
AcDbSymbolTable
 70
  2
  0
LAYER
  5
14
100
AcDbSymbolTableRecord
100
AcDbLayerTableRecord
  2
0
 70
  0
 62
  7
  6
CONTINUOUS
1001
TCAD
1000
TCW_LAYER_ORDER
1002
{
1071
        0
1002
}
  0
LAYER
  5
2A
100
AcDbSymbolTableRecord
100
AcDbLayerTableRecord
  2
$CONSTRUCTION
 70
  0
 62
  9
  6
$CONSTRUCTION
1001
TCAD
1000
TCW_LAYER_ORDER
1002
{
1071
        0
1002
}
  0
ENDTAB
  0
TABLE
  2
STYLE
  5
3
100
AcDbSymbolTable
 70
  3
  0
STYLE
  5
17
100
AcDbSymbolTableRecord
100
AcDbTextStyleTableRecord
  2
STANDARD
 70
  0
 40
0.0
 41
1.0
 50
0.0
 71
  0
 42
0.15
  3
ARIAL.TTF
  4

1001
ACAD
1000
Arial
1071
       34
  0
STYLE
  5
2C
100
AcDbSymbolTableRecord
100
AcDbTextStyleTableRecord
  2
_TCW_TXTSTY_1
 70
  0
 40
0.0
 41
1.0
 50
0.0
 71
  0
 42
0.6
  3
TIMES.TTF
  4

1001
ACAD
1000
Times New Roman
1071
      290
  0
STYLE
  5
75
100
AcDbSymbolTableRecord
100
AcDbTextStyleTableRecord
  2
_TCW_TXTSTY_2
 70
  0
 40
0.0
 41
1.22
 50
0.0
 71
  0
 42
0.087
  3
TIMES.TTF
  4

1001
ACAD
1000
Times New Roman
1071
      290
  0
ENDTAB
  0
TABLE
  2
VIEW
  5
5
100
AcDbSymbolTable
 70
  1
  0
VIEW
  5
2B
100
AcDbSymbolTableRecord
100
AcDbViewTableRecord
  2
VIEW_0
 70
  0
 40
8.268
 10
5.846
 20
4.134
 41
11.693
 11
0.0
 21
0.0
 31
1.0
 12
0.0
 22
0.0
 32
1.0
 42
50.0
 43
0.0
 44
0.0
 50
0.0
 71
  0
  0
ENDTAB
  0
TABLE
  2
UCS
  5
6
100
AcDbSymbolTable
 70
  0
  0
ENDTAB
  0
TABLE
  2
APPID
  5
8
100
AcDbSymbolTable
 70
  2
  0
APPID
  5
16
100
AcDbSymbolTableRecord
100
AcDbRegAppTableRecord
  2
ACAD
 70
  0
  0
APPID
  5
1D
100
AcDbSymbolTableRecord
100
AcDbRegAppTableRecord
  2
TCAD
 70
  0
  0
ENDTAB
  0
TABLE
  2
DIMSTYLE
  5
9
100
AcDbSymbolTable
 70
  1
  0
DIMSTYLE
105
18
100
AcDbSymbolTableRecord
100
AcDbDimStyleTableRecord
  2
STANDARD
 70
  0
  3
<>in
  4
<>
  5

  6

  7

 40
1.0
 41
0.125
 42
0.063
 43
0.375
 44
0.125
 45
0.0
 46
0.0
 47
0.0
 48
0.0
 71
  0
 72
  0
 73
  1
 74
  1
 75
  0
 76
  0
 77
  1
 78
  0
140
0.117
141
0.09
142
0.0
143
1.0
144
1.0
145
0.0
146
1.0
147
0.063
170
  0
171
  2
172
  1
173
  0
174
  1
175
  0
176
  7
177
  7
178
  7
270
  5
271
  4
272
  4
273
  2
274
  2
275
  0
280
  0
281
  0
282
  0
283
  1
284
  0
285
  0
286
  0
287
  0
288
  0
340
2C
  0
ENDTAB
  0
TABLE
  2
BLOCK_RECORD
  5
1
100
AcDbSymbolTable
 70
  6
  0
BLOCK_RECORD
  5
A
100
AcDbSymbolTableRecord
100
AcDbBlockTableRecord
  2
*MODEL_SPACE
  0
BLOCK_RECORD
  5
B
100
AcDbSymbolTableRecord
100
AcDbBlockTableRecord
  2
*PAPER_SPACE
  0
BLOCK_RECORD
  5
53
100
AcDbSymbolTableRecord
100
AcDbBlockTableRecord
  2
*D0
  0
BLOCK_RECORD
  5
63
100
AcDbSymbolTableRecord
100
AcDbBlockTableRecord
  2
*D1
  0
BLOCK_RECORD
  5
78
100
AcDbSymbolTableRecord
100
AcDbBlockTableRecord
  2
*D2
  0
BLOCK_RECORD
  5
87
100
AcDbSymbolTableRecord
100
AcDbBlockTableRecord
  2
*D3
  0
BLOCK_RECORD
  5
97
100
AcDbSymbolTableRecord
100
AcDbBlockTableRecord
  2
*D4
  0
BLOCK_RECORD
  5
A7
100
AcDbSymbolTableRecord
100
AcDbBlockTableRecord
  2
*D5
  0
ENDTAB
  0
ENDSEC
  0
SECTION
  2
BLOCKS
  0
BLOCK
  5
D
100
AcDbEntity
  8
0
100
AcDbBlockBegin
  2
*MODEL_SPACE
 70
  0
 10
0.0
 20
0.0
 30
0.0
  3
*MODEL_SPACE
  1

  0
ENDBLK
  5
E
100
AcDbEntity
  8
0
100
AcDbBlockEnd
  0
BLOCK
  5
F
100
AcDbEntity
 67
  1
  8
0
100
AcDbBlockBegin
  2
*PAPER_SPACE
 70
  0
 10
0.0
 20
0.0
 30
0.0
  3
*PAPER_SPACE
  1

  0
ENDBLK
  5
10
100
AcDbEntity
 67
  1
  8
0
100
AcDbBlockEnd
  0
BLOCK
  5
54
100
AcDbEntity
  8
0
100
AcDbBlockBegin
  2
*D0
 70
  1
 10
0.0
 20
0.0
 30
0.0
  3
*D0
  1

  0
LINE
  5
55
100
AcDbEntity
  8
0
  6
CONTINUOUS
 62
  7
100
AcDbLine
 10
15.179
 20
-1.447
 30
0.0
 11
15.179
 21
-3.225
 31
0.0
  0
LINE
  5
56
100
AcDbEntity
  8
0
  6
CONTINUOUS
 62
  7
100
AcDbLine
 10
21.676
 20
-1.748
 30
0.0
 11
21.676
 21
-3.225
 31
0.0
  0
LWPOLYLINE
  5
57
100
AcDbEntity
  8
0
  6
CONTINUOUS
 62
  7
100
AcDbPolyline
 90
        4
 70
  0
 10
15.304
 20
-3.1
 10
15.304
 20
-3.1
 10
15.304
 20
-3.1
 10
18.427
 20
-3.1
  0
LWPOLYLINE
  5
58
100
AcDbEntity
  8
0
  6
CONTINUOUS
 62
  7
100
AcDbPolyline
 90
        4
 70
  0
 10
21.551
 20
-3.1
 10
21.551
 20
-3.1
 10
21.551
 20
-3.1
 10
18.427
 20
-3.1
  0
LWPOLYLINE
  5
5B
100
AcDbEntity
  8
0
  6
CONTINUOUS
 62
  7
100
AcDbPolyline
 90
        4
 70
  0
 10
15.179
 20
-3.1
 40
0.0
 41
0.0
 10
15.304
 20
-3.116
 40
0.0
 41
0.0
 10
15.304
 20
-3.084
 40
0.0
 41
0.0
 10
15.179
 20
-3.1
 40
0.0
 41
0.0
  0
HATCH
  5
59
100
AcDbEntity
  8
0
  6
CONTINUOUS
 62
  7
100
AcDbHatch
 10
0.0
 20
0.0
 30
0.0
210
0.0
220
0.0
230
1.0
  2
SOLID
 70
  1
 71
  1
 91
        1
 92
        3
 72
  0
 73
  1
 93
        3
 10
15.178986042972722
 20
-3.0998515589500464
 10
15.303986042972722
 20
-3.1161015589500463
 10
15.303986042972722
 20
-3.0836015589500465
 97
        1
330
5A
 75
  0
 76
  0
 98
        0
  0
LWPOLYLINE
  5
5E
100
AcDbEntity
  8
0
  6
CONTINUOUS
 62
  7
100
AcDbPolyline
 90
        4
 70
  0
 10
21.676
 20
-3.1
 40
0.0
 41
0.0
 10
21.551
 20
-3.084
 40
0.0
 41
0.0
 10
21.551
 20
-3.116
 40
0.0
 41
0.0
 10
21.676
 20
-3.1
 40
0.0
 41
0.0
  0
HATCH
  5
5C
100
AcDbEntity
  8
0
  6
CONTINUOUS
 62
  7
100
AcDbHatch
 10
0.0
 20
0.0
 30
0.0
210
0.0
220
0.0
230
1.0
  2
SOLID
 70
  1
 71
  1
 91
        1
 92
        3
 72
  0
 73
  1
 93
        3
 10
21.675715781820799
 20
-3.0998515589500464
 10
21.550715781820799
 20
-3.0836015589500465
 10
21.550715781820799
 20
-3.1161015589500463
 97
        1
330
5D
 75
  0
 76
  0
 98
        0
  0
TEXT
  5
5F
100
AcDbEntity
  8
0
  6
CONTINUOUS
 62
  7
100
AcDbText
 10
18.181
 20
-2.998
 30
0.0
 40
0.117
  1
6 1/2
  7
_TCW_TXTSTY_1
 72
  1
 11
18.359
 21
-2.94
 31
0.0
100
AcDbText
 73
  2
  0
TEXT
  5
60
100
AcDbEntity
  8
0
  6
CONTINUOUS
 62
  7
100
AcDbText
 10
18.537
 20
-2.998
 30
0.0
 40
0.117
  1
in
  7
_TCW_TXTSTY_1
 11
18.537
 21
-2.882
 31
0.0
100
AcDbText
 73
  3
  0
ENDBLK
  5
61
100
AcDbEntity
  8
0
100
AcDbBlockEnd
  0
BLOCK
  5
64
100
AcDbEntity
  8
0
100
AcDbBlockBegin
  2
*D1
 70
  1
 10
0.0
 20
0.0
 30
0.0
  3
*D1
  1

  0
LINE
  5
65
100
AcDbEntity
  8
0
  6
CONTINUOUS
 62
  7
100
AcDbLine
 10
21.797
 20
-0.427
 30
0.0
 11
22.972
 21
-0.427
 31
0.0
  0
LINE
  5
66
100
AcDbEntity
  8
0
  6
CONTINUOUS
 62
  7
100
AcDbLine
 10
20.916
 20
-1.306
 30
0.0
 11
22.972
 21
-1.306
 31
0.0
  0
LWPOLYLINE
  5
67
100
AcDbEntity
  8
0
  6
CONTINUOUS
 62
  7
100
AcDbPolyline
 90
        4
 70
  0
 10
22.847
 20
-0.552
 10
22.847
 20
-0.552
 10
22.847
 20
-0.552
 10
22.847
 20
-0.749
  0
LWPOLYLINE
  5
68
100
AcDbEntity
  8
0
  6
CONTINUOUS
 62
  7
100
AcDbPolyline
 90
        4
 70
  0
 10
22.847
 20
-1.181
 10
22.847
 20
-1.181
 10
22.847
 20
-1.181
 10
22.847
 20
-0.983
  0
LWPOLYLINE
  5
6B
100
AcDbEntity
  8
0
  6
CONTINUOUS
 62
  7
100
AcDbPolyline
 90
        4
 70
  0
 10
22.847
 20
-0.427
 40
0.0
 41
0.0
 10
22.831
 20
-0.552
 40
0.0
 41
0.0
 10
22.863
 20
-0.552
 40
0.0
 41
0.0
 10
22.847
 20
-0.427
 40
0.0
 41
0.0
  0
HATCH
  5
69
100
AcDbEntity
  8
0
  6
CONTINUOUS
 62
  7
100
AcDbHatch
 10
0.0
 20
0.0
 30
0.0
210
0.0
220
0.0
230
1.0
  2
SOLID
 70
  1
 71
  1
 91
        1
 92
        3
 72
  0
 73
  1
 93
        3
 10
22.846804252619293
 20
-0.4265478557126325
 10
22.830554252619294
 20
-0.5515478557126325
 10
22.863054252619293
 20
-0.5515478557126325
 97
        1
330
6A
 75
  0
 76
  0
 98
        0
  0
LWPOLYLINE
  5
6E
100
AcDbEntity
  8
0
  6
CONTINUOUS
 62
  7
100
AcDbPolyline
 90
        4
 70
  0
 10
22.847
 20
-1.306
 40
0.0
 41
0.0
 10
22.863
 20
-1.181
 40
0.0
 41
0.0
 10
22.831
 20
-1.181
 40
0.0
 41
0.0
 10
22.847
 20
-1.306
 40
0.0
 41
0.0
  0
HATCH
  5
6C
100
AcDbEntity
  8
0
  6
CONTINUOUS
 62
  7
100
AcDbHatch
 10
0.0
 20
0.0
 30
0.0
210
0.0
220
0.0
230
1.0
  2
SOLID
 70
  1
 71
  1
 91
        1
 92
        3
 72
  0
 73
  1
 93
        3
 10
22.846804252619293
 20
-1.3055778255974806
 10
22.863054252619293
 20
-1.1805778255974806
 10
22.830554252619294
 20
-1.1805778255974806
 97
        1
330
6D
 75
  0
 76
  0
 98
        0
  0
TEXT
  5
6F
100
AcDbEntity
  8
0
  6
CONTINUOUS
 62
  7
100
AcDbText
 10
22.666
 20
-0.924
 30
0.0
 40
0.117
  1
7/8
  7
_TCW_TXTSTY_1
 72
  1
 11
22.779
 21
-0.866
 31
0.0
100
AcDbText
 73
  2
  0
TEXT
  5
70
100
AcDbEntity
  8
0
  6
CONTINUOUS
 62
  7
100
AcDbText
 10
22.891
 20
-0.924
 30
0.0
 40
0.117
  1
in
  7
_TCW_TXTSTY_1
 11
22.891
 21
-0.808
 31
0.0
100
AcDbText
 73
  3
  0
ENDBLK
  5
71
100
AcDbEntity
  8
0
100
AcDbBlockEnd
  0
BLOCK
  5
79
100
AcDbEntity
  8
0
100
AcDbBlockBegin
  2
*D2
 70
  1
 10
0.0
 20
0.0
 30
0.0
  3
*D2
  1

  0
LINE
  5
7A
100
AcDbEntity
  8
0
  6
CONTINUOUS
 62
  7
100
AcDbLine
 10
4.018
 20
1.482
 30
0.0
 11
4.018
 21
0.945
 31
0.0
  0
LINE
  5
7B
100
AcDbEntity
  8
0
  6
CONTINUOUS
 62
  7
100
AcDbLine
 10
3.974
 20
2.879
 30
0.0
 11
2.619
 21
1.525
 31
0.0
  0
ARC
  5
7C
100
AcDbEntity
  8
0
  6
CONTINUOUS
 62
  7
100
AcDbCircle
 10
4.018
 20
2.923
 30
0.0
 40
1.853
100
AcDbArc
 50
-107.811
 51
-93.865
  0
ARC
  5
7D
100
AcDbEntity
  8
0
  6
CONTINUOUS
 62
  7
100
AcDbCircle
 10
4.018
 20
2.923
 30
0.0
 40
1.853
100
AcDbArc
 50
-131.135
 51
-117.355
  0
LWPOLYLINE
  5
80
100
AcDbEntity
  8
0
  6
CONTINUOUS
 62
  7
100
AcDbPolyline
 90
        4
 70
  0
 10
2.707
 20
1.613
 40
0.0
 41
0.0
 10
2.788
 20
1.516
 40
0.0
 41
0.0
 10
2.81
 20
1.539
 40
0.0
 41
0.0
 10
2.707
 20
1.613
 40
0.0
 41
0.0
  0
HATCH
  5
7E
100
AcDbEntity
  8
0
  6
CONTINUOUS
 62
  7
100
AcDbHatch
 10
0.0
 20
0.0
 30
0.0
210
0.0
220
0.0
230
1.0
  2
SOLID
 70
  1
 71
  1
 91
        1
 92
        3
 72
  0
 73
  1
 93
        3
 10
2.7074455007103184
 20
1.6129327023418505
 10
2.7876681505079279
 20
1.5157041625016876
 10
2.8098609863770232
 20
1.5394471201120483
 97
        1
330
7F
 75
  0
 76
  0
 98
        0
  0
LWPOLYLINE
  5
83
100
AcDbEntity
  8
0
  6
CONTINUOUS
 62
  7
100
AcDbPolyline
 90
        4
 70
  0
 10
4.018
 20
1.07
 40
0.0
 41
0.0
 10
3.893
 20
1.091
 40
0.0
 41
0.0
 10
3.892
 20
1.058
 40
0.0
 41
0.0
 10
4.018
 20
1.07
 40
0.0
 41
0.0
  0
HATCH
  5
81
100
AcDbEntity
  8
0
  6
CONTINUOUS
 62
  7
100
AcDbHatch
 10
0.0
 20
0.0
 30
0.0
210
0.0
220
0.0
230
1.0
  2
SOLID
 70
  1
 71
  1
 91
        1
 92
        3
 72
  0
 73
  1
 93
        3
 10
4.017826450752354
 20
1.0701551409590984
 10
3.8934456128247787
 20
1.0906116718584038
 10
3.8923495112298654
 20
1.0581301607898956
 97
        1
330
82
 75
  0
 76
  0
 98
        0
  0
TEXT
  5
84
100
AcDbEntity
  8
0
  6
CONTINUOUS
 62
  7
100
AcDbText
 10
3.186
 20
1.153
 30
0.0
 40
0.117
  1
45%%d
  7
_TCW_TXTSTY_1
 72
  1
 11
3.309
 21
1.211
 31
0.0
100
AcDbText
 73
  2
  0
ENDBLK
  5
85
100
AcDbEntity
  8
0
100
AcDbBlockEnd
  0
BLOCK
  5
88
100
AcDbEntity
  8
0
100
AcDbBlockBegin
  2
*D3
 70
  1
 10
0.0
 20
0.0
 30
0.0
  3
*D3
  1

  0
LINE
  5
89
100
AcDbEntity
  8
0
  6
CONTINUOUS
 62
  7
100
AcDbLine
 10
8.302
 20
6.248
 30
0.0
 11
9.144
 21
6.248
 31
0.0
  0
LINE
  5
8A
100
AcDbEntity
  8
0
  6
CONTINUOUS
 62
  7
100
AcDbLine
 10
7.341
 20
6.252
 30
0.0
 11
8.615
 21
7.526
 31
0.0
  0
ARC
  5
8B
100
AcDbEntity
  8
0
  6
CONTINUOUS
 62
  7
100
AcDbCircle
 10
7.337
 20
6.248
 30
0.0
 40
1.683
100
AcDbArc
 50
26.873
 51
40.743
  0
ARC
  5
8C
100
AcDbEntity
  8
0
  6
CONTINUOUS
 62
  7
100
AcDbCircle
 10
7.337
 20
6.248
 30
0.0
 40
1.683
100
AcDbArc
 50
4.257
 51
18.261
  0
LWPOLYLINE
  5
8F
100
AcDbEntity
  8
0
  6
CONTINUOUS
 62
  7
100
AcDbPolyline
 90
        4
 70
  0
 10
9.019
 20
6.248
 40
0.0
 41
0.0
 10
9.031
 20
6.373
 40
0.0
 41
0.0
 10
8.998
 20
6.372
 40
0.0
 41
0.0
 10
9.019
 20
6.248
 40
0.0
 41
0.0
  0
HATCH
  5
8D
100
AcDbEntity
  8
0
  6
CONTINUOUS
 62
  7
100
AcDbHatch
 10
0.0
 20
0.0
 30
0.0
210
0.0
220
0.0
230
1.0
  2
SOLID
 70
  1
 71
  1
 91
        1
 92
        3
 72
  0
 73
  1
 93
        3
 10
9.0192970093658644
 20
6.2476386967346329
 10
9.0308928735773719
 20
6.3731560199740498
 10
8.9984153003129421
 20
6.3719488601446654
 97
        1
330
8E
 75
  0
 76
  0
 98
        0
  0
LWPOLYLINE
  5
92
100
AcDbEntity
  8
0
  6
CONTINUOUS
 62
  7
100
AcDbPolyline
 90
        4
 70
  0
 10
8.526
 20
7.437
 40
0.0
 41
0.0
 10
8.6
 20
7.335
 40
0.0
 41
0.0
 10
8.623
 20
7.357
 40
0.0
 41
0.0
 10
8.526
 20
7.437
 40
0.0
 41
0.0
  0
HATCH
  5
90
100
AcDbEntity
  8
0
  6
CONTINUOUS
 62
  7
100
AcDbHatch
 10
0.0
 20
0.0
 30
0.0
210
0.0
220
0.0
230
1.0
  2
SOLID
 70
  1
 71
  1
 91
        1
 92
        3
 72
  0
 73
  1
 93
        3
 10
8.5264547723785284
 20
7.4374651093797546
 10
8.5995897338220857
 20
7.3347989517880272
 10
8.6234084370151791
 20
7.3569104731784538
 97
        1
330
91
 75
  0
 76
  0
 98
        0
  0
TEXT
  5
93
100
AcDbEntity
  8
0
  6
CONTINUOUS
 62
  7
100
AcDbText
 10
8.768
 20
6.833
 30
0.0
 40
0.117
  1
45%%d
  7
_TCW_TXTSTY_1
 72
  1
 11
8.891
 21
6.892
 31
0.0
100
AcDbText
 73
  2
  0
ENDBLK
  5
94
100
AcDbEntity
  8
0
100
AcDbBlockEnd
  0
BLOCK
  5
98
100
AcDbEntity
  8
0
100
AcDbBlockBegin
  2
*D4
 70
  1
 10
0.0
 20
0.0
 30
0.0
  3
*D4
  1

  0
LINE
  5
99
100
AcDbEntity
  8
0
  6
CONTINUOUS
 62
  7
100
AcDbLine
 10
4.02
 20
5.649
 30
0.0
 11
4.02
 21
7.999
 31
0.0
  0
LINE
  5
9A
100
AcDbEntity
  8
0
  6
CONTINUOUS
 62
  7
100
AcDbLine
 10
8.718
 20
6.311
 30
0.0
 11
8.718
 21
7.999
 31
0.0
  0
LWPOLYLINE
  5
9B
100
AcDbEntity
  8
0
  6
CONTINUOUS
 62
  7
100
AcDbPolyline
 90
        4
 70
  0
 10
4.145
 20
7.874
 10
4.145
 20
7.874
 10
4.145
 20
7.874
 10
6.369
 20
7.874
  0
LWPOLYLINE
  5
9C
100
AcDbEntity
  8
0
  6
CONTINUOUS
 62
  7
100
AcDbPolyline
 90
        4
 70
  0
 10
8.593
 20
7.874
 10
8.593
 20
7.874
 10
8.593
 20
7.874
 10
6.369
 20
7.874
  0
LWPOLYLINE
  5
9F
100
AcDbEntity
  8
0
  6
CONTINUOUS
 62
  7
100
AcDbPolyline
 90
        4
 70
  0
 10
4.02
 20
7.874
 40
0.0
 41
0.0
 10
4.145
 20
7.857
 40
0.0
 41
0.0
 10
4.145
 20
7.89
 40
0.0
 41
0.0
 10
4.02
 20
7.874
 40
0.0
 41
0.0
  0
HATCH
  5
9D
100
AcDbEntity
  8
0
  6
CONTINUOUS
 62
  7
100
AcDbHatch
 10
0.0
 20
0.0
 30
0.0
210
0.0
220
0.0
230
1.0
  2
SOLID
 70
  1
 71
  1
 91
        1
 92
        3
 72
  0
 73
  1
 93
        3
 10
4.0198069608835194
 20
7.8735746642683484
 10
4.1448069608835194
 20
7.8573246642683481
 10
4.1448069608835194
 20
7.8898246642683487
 97
        1
330
9E
 75
  0
 76
  0
 98
        0
  0
LWPOLYLINE
  5
A2
100
AcDbEntity
  8
0
  6
CONTINUOUS
 62
  7
100
AcDbPolyline
 90
        4
 70
  0
 10
8.718
 20
7.874
 40
0.0
 41
0.0
 10
8.593
 20
7.89
 40
0.0
 41
0.0
 10
8.593
 20
7.857
 40
0.0
 41
0.0
 10
8.718
 20
7.874
 40
0.0
 41
0.0
  0
HATCH
  5
A0
100
AcDbEntity
  8
0
  6
CONTINUOUS
 62
  7
100
AcDbHatch
 10
0.0
 20
0.0
 30
0.0
210
0.0
220
0.0
230
1.0
  2
SOLID
 70
  1
 71
  1
 91
        1
 92
        3
 72
  0
 73
  1
 93
        3
 10
8.7175787884645608
 20
7.8735746642683484
 10
8.5925787884645608
 20
7.8898246642683487
 10
8.5925787884645608
 20
7.8573246642683481
 97
        1
330
A1
 75
  0
 76
  0
 98
        0
  0
TEXT
  5
A3
100
AcDbEntity
  8
0
  6
CONTINUOUS
 62
  7
100
AcDbText
 10
6.035
 20
7.975
 30
0.0
 40
0.117
  1
4 11/16
  7
_TCW_TXTSTY_1
 72
  1
 11
6.3
 21
8.033
 31
0.0
100
AcDbText
 73
  2
  0
TEXT
  5
A4
100
AcDbEntity
  8
0
  6
CONTINUOUS
 62
  7
100
AcDbText
 10
6.566
 20
7.975
 30
0.0
 40
0.117
  1
in
  7
_TCW_TXTSTY_1
 11
6.566
 21
8.092
 31
0.0
100
AcDbText
 73
  3
  0
ENDBLK
  5
A5
100
AcDbEntity
  8
0
100
AcDbBlockEnd
  0
BLOCK
  5
A8
100
AcDbEntity
  8
0
100
AcDbBlockBegin
  2
*D5
 70
  1
 10
0.0
 20
0.0
 30
0.0
  3
*D5
  1

  0
LINE
  5
A9
100
AcDbEntity
  8
0
  6
CONTINUOUS
 62
  7
100
AcDbLine
 10
3.957
 20
1.593
 30
0.0
 11
2.439
 21
1.593
 31
0.0
  0
LINE
  5
AA
100
AcDbEntity
  8
0
  6
CONTINUOUS
 62
  7
100
AcDbLine
 10
4.822
 20
6.248
 30
0.0
 11
2.439
 21
6.248
 31
0.0
  0
LWPOLYLINE
  5
AB
100
AcDbEntity
  8
0
  6
CONTINUOUS
 62
  7
100
AcDbPolyline
 90
        4
 70
  0
 10
2.564
 20
1.718
 10
2.564
 20
1.718
 10
2.564
 20
1.718
 10
2.564
 20
3.804
  0
LWPOLYLINE
  5
AC
100
AcDbEntity
  8
0
  6
CONTINUOUS
 62
  7
100
AcDbPolyline
 90
        4
 70
  0
 10
2.564
 20
6.123
 10
2.564
 20
6.123
 10
2.564
 20
6.123
 10
2.564
 20
4.037
  0
LWPOLYLINE
  5
AF
100
AcDbEntity
  8
0
  6
CONTINUOUS
 62
  7
100
AcDbPolyline
 90
        4
 70
  0
 10
2.564
 20
1.593
 40
0.0
 41
0.0
 10
2.581
 20
1.718
 40
0.0
 41
0.0
 10
2.548
 20
1.718
 40
0.0
 41
0.0
 10
2.564
 20
1.593
 40
0.0
 41
0.0
  0
HATCH
  5
AD
100
AcDbEntity
  8
0
  6
CONTINUOUS
 62
  7
100
AcDbHatch
 10
0.0
 20
0.0
 30
0.0
210
0.0
220
0.0
230
1.0
  2
SOLID
 70
  1
 71
  1
 91
        1
 92
        3
 72
  0
 73
  1
 93
        3
 10
2.56428819373826
 20
1.5927341617900561
 10
2.5805381937382599
 20
1.7177341617900561
 10
2.5480381937382601
 20
1.7177341617900561
 97
        1
330
AE
 75
  0
 76
  0
 98
        0
  0
LWPOLYLINE
  5
B2
100
AcDbEntity
  8
0
  6
CONTINUOUS
 62
  7
100
AcDbPolyline
 90
        4
 70
  0
 10
2.564
 20
6.248
 40
0.0
 41
0.0
 10
2.548
 20
6.123
 40
0.0
 41
0.0
 10
2.581
 20
6.123
 40
0.0
 41
0.0
 10
2.564
 20
6.248
 40
0.0
 41
0.0
  0
HATCH
  5
B0
100
AcDbEntity
  8
0
  6
CONTINUOUS
 62
  7
100
AcDbHatch
 10
0.0
 20
0.0
 30
0.0
210
0.0
220
0.0
230
1.0
  2
SOLID
 70
  1
 71
  1
 91
        1
 92
        3
 72
  0
 73
  1
 93
        3
 10
2.56428819373826
 20
6.2480468861747003
 10
2.5480381937382601
 20
6.1230468861747003
 10
2.5805381937382599
 20
6.1230468861747003
 97
        1
330
B1
 75
  0
 76
  0
 98
        0
  0
TEXT
  5
B3
100
AcDbEntity
  8
0
  6
CONTINUOUS
 62
  7
100
AcDbText
 10
2.318
 20
3.862
 30
0.0
 40
0.117
  1
4 5/8
  7
_TCW_TXTSTY_1
 72
  1
 11
2.496
 21
3.92
 31
0.0
100
AcDbText
 73
  2
  0
TEXT
  5
B4
100
AcDbEntity
  8
0
  6
CONTINUOUS
 62
  7
100
AcDbText
 10
2.674
 20
3.862
 30
0.0
 40
0.117
  1
in
  7
_TCW_TXTSTY_1
 11
2.674
 21
3.979
 31
0.0
100
AcDbText
 73
  3
  0
ENDBLK
  5
B5
100
AcDbEntity
  8
0
100
AcDbBlockEnd
  0
ENDSEC
  0
SECTION
  2
ENTITIES
  0
VIEWPORT
  5
73
100
AcDbEntity
 67
  1
  8
0
100
AcDbViewport
 10
-0.298
 20
-0.164
 30
0.0
 40
20.48
 41
11.974
 68
  1
 69
  1
1001
ACAD
1000
MVIEW
1002
{
1070
 16
1010
0.0
1020
0.0
1030
0.0
1010
0.0
1020
0.0
1030
1.0
1040
0.0
1040
11.974
1040
-0.298
1040
-0.164
1040
50.0
1040
0.0
1040
0.0
1070
  0
1070
100
1070
  0
1070
  1
1070
  0
1070
  0
1070
  0
1070
  0
1040
0.0
1040
0.0
1040
0.0
1040
0.5
1040
0.5
1040
0.5
1040
0.5
1070
  0
1002
{
1002
}
1002
}
  0
TEXT
  5
74
100
AcDbEntity
 67
  1
  8
0
  6
CONTINUOUS
 62
  7
100
AcDbText
 10
4.8
 20
0.663
 30
0.0
 40
0.133
  1
Crown #3345
  7
_TCW_TXTSTY_1
 11
4.8
 21
0.796
 31
0.0
100
AcDbText
 73
  3
1001
TCAD
1000
TCW40_TEXT
1002
{
1000
Times New Roman
1070
  0
1070
257
1002
}
  0
MTEXT
  5
76
100
AcDbEntity
 67
  1
  8
0
  6
CONTINUOUS
 62
  7
100
AcDbMText
 10
4.8
 20
0.388
 30
0.0
 40
0.087
 41
1.35
 71
  1
 72
  1
  1
{Saroyan Lumber Co.\P(800) 624-9309}
  7
_TCW_TXTSTY_2
1001
TCAD
1000
TCW_REFPOINT
1002
{
1010
4.8
1020
0.278
1030
0.0
1002
}
1001
TCAD
1000
TCW40_TEXT
1002
{
1000
Times New Roman
1070
  0
1070
257
1002
}
  0
TEXT
  5
77
100
AcDbEntity
 67
  1
  8
0
  6
CONTINUOUS
 62
  7
100
AcDbText
 10
4.8
 20
0.482
 30
0.0
 40
0.1
  1
7/8 x 6-1/2
  7
_TCW_TXTSTY_1
 11
4.8
 21
0.582
 31
0.0
100
AcDbText
 73
  3
1001
TCAD
1000
TCW_REFPOINT
1002
{
1010
4.8
1020
0.616
1030
0.0
1002
}
1001
TCAD
1000
TCW40_TEXT
1002
{
1000
Times New Roman
1070
  0
1070
257
1002
}
  0
DIMENSION
  5
86
100
AcDbEntity
 67
  1
  8
0
  6
CONTINUOUS
 62
  7
100
AcDbDimension
  2
*D2
 10
4.018
 20
2.923
 30
0.0
 11
3.309
 21
1.211
 31
0.0
 70
  2
  1
<>
  3
STANDARD
100
AcDb2LineAngularDimension
 13
4.018
 23
2.923
 33
0.0
 14
4.018
 24
1.544
 34
0.0
 15
4.295
 25
3.201
 35
0.0
 16
2.806
 26
1.522
 36
0.0
1001
ACAD
1000
DSTYLE
1002
{
1070
 41
1040
0.125
1070
179
1070
  0
1070
271
1070
  0
1070
  3
1000

1070
272
1070
  0
1002
}
1001
TCAD
1000
TCW_DSTYLE
1002
{
1070
  0
1002
}
  0
DIMENSION
  5
95
100
AcDbEntity
 67
  1
  8
0
  6
CONTINUOUS
 62
  7
100
AcDbDimension
  2
*D3
 10
7.297
 20
6.208
 30
0.0
 11
8.891
 21
6.892
 31
0.0
 70
  2
  1
<>
  3
STANDARD
100
AcDb2LineAngularDimension
 13
6.151
 23
6.248
 33
0.0
 14
8.239
 24
6.248
 34
0.0
 15
3.978
 25
2.889
 35
0.0
 16
8.854
 26
6.975
 36
0.0
1001
ACAD
1000
DSTYLE
1002
{
1070
 41
1040
0.125
1070
179
1070
  0
1070
271
1070
  0
1070
  3
1000

1070
272
1070
  0
1002
}
1001
TCAD
1000
TCW_DSTYLE
1002
{
1070
  0
1002
}
  0
LWPOLYLINE
  5
96
100
AcDbEntity
 67
  1
  8
0
  6
CONTINUOUS
 62
  7
100
AcDbPolyline
 90
       32
 70
  1
 43
0.014
 10
4.02
 20
2.922
 10
4.233
 20
3.137
 10
4.348
 20
3.042
 10
4.451
 20
3.143
 10
4.364
 20
3.262
 10
7.269
 20
6.174
 10
8.718
 20
6.248
 10
8.715
 20
6.121
 10
8.626
 20
6.08
 42
0.36
 10
8.497
 20
5.85
 10
8.315
 20
5.832
 42
0.004
 10
8.292
 20
5.629
 42
-0.121
 10
8.19
 20
5.442
 42
-0.191
 10
8.005
 20
5.337
 42
-0.163
 10
7.79
 20
5.381
 10
7.696
 20
5.467
 10
7.558
 20
5.384
 10
7.649
 20
5.171
 42
0.069
 10
6.581
 20
4.536
 42
0.066
 10
5.678
 20
3.608
 42
0.061
 10
5.102
 20
2.654
 10
4.892
 20
2.748
 10
4.81
 20
2.604
 42
-0.016
 10
4.92
 20
2.449
 42
-0.11
 10
4.934
 20
2.3
 42
-0.215
 10
4.865
 20
2.137
 42
-0.185
 10
4.636
 20
2.01
 42
-0.065
 10
4.442
 20
1.979
 10
4.423
 20
1.811
 42
0.364
 10
4.177
 20
1.687
 10
4.141
 20
1.595
 10
4.02
 20
1.593
  0
DIMENSION
  5
A6
100
AcDbEntity
 67
  1
  8
0
  6
CONTINUOUS
 62
  7
100
AcDbDimension
  2
*D4
 10
8.718
 20
7.874
 30
0.0
 11
6.369
 21
8.033
 31
0.0
  1
<>
  3
STANDARD
100
AcDbAlignedDimension
 13
4.02
 23
5.587
 33
0.0
 14
8.718
 24
6.248
 34
0.0
100
AcDbRotatedDimension
1001
ACAD
1000
DSTYLE
1002
{
1002
}
  0
DIMENSION
  5
B6
100
AcDbEntity
 67
  1
  8
0
  6
CONTINUOUS
 62
  7
100
AcDbDimension
  2
*D5
 10
2.564
 20
6.248
 30
0.0
 11
2.564
 21
3.92
 31
0.0
  1
<>
  3
STANDARD
100
AcDbAlignedDimension
 13
4.02
 23
1.593
 33
0.0
 14
4.884
 24
6.248
 34
0.0
 50
-90.0
100
AcDbRotatedDimension
1001
ACAD
1000
DSTYLE
1002
{
1002
}
  0
LINE
  5
2D
100
AcDbEntity
  8
0
  6
CONTINUOUS
 62
 30
100
AcDbLine
 10
21.061
 20
-1.306
 30
0.0
 11
21.661
 21
-0.705
 31
0.0
1001
TCAD
1000
TCW_REFPOINT
1002
{
1010
21.049
1020
-1.318
1030
0.0
1002
}
  0
LINE
  5
2E
100
AcDbEntity
  8
0
  6
CONTINUOUS
 62
 30
100
AcDbLine
 10
15.81
 20
-1.306
 30
0.0
 11
21.061
 21
-1.306
 31
0.0
  0
LINE
  5
2F
100
AcDbEntity
  8
0
  6
CONTINUOUS
 62
 30
100
AcDbLine
 10
15.81
 20
-1.306
 30
0.0
 11
15.203
 21
-0.699
 31
0.0
1001
TCAD
1000
TCW_REFPOINT
1002
{
1010
15.809
1020
-1.305
1030
0.0
1002
}
  0
LINE
  5
30
100
AcDbEntity
  8
0
  6
CONTINUOUS
 62
 30
100
AcDbLine
 10
21.661
 20
-0.636
 30
0.0
 11
21.586
 21
-0.561
 31
0.0
  0
LINE
  5
31
100
AcDbEntity
  8
0
  6
CONTINUOUS
 62
 30
100
AcDbLine
 10
21.188
 20
-0.553
 30
0.0
 11
21.122
 21
-0.619
 31
0.0
  0
ARC
  5
32
100
AcDbEntity
  8
0
  6
CONTINUOUS
 62
 30
100
AcDbCircle
 10
21.4
 20
-0.403
 30
0.0
 40
0.196
100
AcDbArc
 50
-131.575
 51
-54.48
  0
ARC
  5
33
100
AcDbEntity
  8
0
  6
CONTINUOUS
 62
 30
100
AcDbCircle
 10
21.552
 20
-0.616
 30
0.0
 40
0.065
100
AcDbArc
 50
57.944
 51
125.52
  0
ARC
  5
34
100
AcDbEntity
  8
0
  6
CONTINUOUS
 62
 30
100
AcDbCircle
 10
21.231
 20
-0.595
 30
0.0
 40
0.06
100
AcDbArc
 50
48.425
 51
135.0
  0
ARC
  5
35
100
AcDbEntity
  8
0
  6
CONTINUOUS
 62
 30
100
AcDbCircle
 10
21.627
 20
-0.671
 30
0.0
 40
0.049
100
AcDbArc
 50
-39.27
 51
45.0
  0
ARC
  5
36
100
AcDbEntity
  8
0
  6
CONTINUOUS
 62
 30
100
AcDbCircle
 10
20.164
 20
-1.999
 30
0.0
 40
1.679
100
AcDbArc
 50
55.231
 51
66.287
  0
ARC
  5
37
100
AcDbEntity
  8
0
  6
CONTINUOUS
 62
 30
100
AcDbCircle
 10
20.643
 20
-1.0
 30
0.0
 40
0.573
100
AcDbArc
 50
69.977
 51
88.641
  0
ARC
  5
38
100
AcDbEntity
  8
0
  6
CONTINUOUS
 62
 30
100
AcDbCircle
 10
20.676
 20
-0.715
 30
0.0
 40
0.295
100
AcDbArc
 50
119.973
 51
140.036
  0
ARC
  5
39
100
AcDbEntity
  8
0
  6
CONTINUOUS
 62
 30
100
AcDbCircle
 10
20.651
 20
-0.672
 30
0.0
 40
0.245
100
AcDbArc
 50
88.641
 51
119.973
  0
ARC
  5
3A
100
AcDbEntity
  8
0
  6
CONTINUOUS
 62
 30
100
AcDbCircle
 10
20.801
 20
-0.777
 30
0.0
 40
0.432
100
AcDbArc
 50
144.31
 51
184.264
  0
LINE
  5
3B
100
AcDbEntity
  8
0
  6
CONTINUOUS
 62
 30
100
AcDbLine
 10
20.37
 20
-0.809
 30
0.0
 11
20.224
 21
-0.855
 31
0.0
  0
LINE
  5
3C
100
AcDbEntity
  8
0
  6
CONTINUOUS
 62
 30
100
AcDbLine
 10
20.224
 20
-0.855
 30
0.0
 11
20.165
 21
-0.691
 31
0.0
  0
ARC
  5
3D
100
AcDbEntity
  8
0
  6
CONTINUOUS
 62
 30
100
AcDbCircle
 10
18.209
 20
3.871
 30
0.0
 40
4.908
100
AcDbArc
 50
-78.585
 51
-67.398
  0
ARC
  5
3E
100
AcDbEntity
  8
0
  6
CONTINUOUS
 62
 30
100
AcDbCircle
 10
18.523
 20
1.967
 30
0.0
 40
2.981
100
AcDbArc
 50
-102.462
 51
-77.256
  0
ARC
  5
3F
100
AcDbEntity
  8
0
  6
CONTINUOUS
 62
 30
100
AcDbCircle
 10
19.091
 20
5.884
 30
0.0
 40
6.934
100
AcDbArc
 50
-109.925
 51
-100.063
  0
LINE
  5
40
100
AcDbEntity
  8
0
  6
CONTINUOUS
 62
 30
100
AcDbLine
 10
16.657
 20
-0.666
 30
0.0
 11
16.586
 21
-0.834
 31
0.0
  0
LINE
  5
41
100
AcDbEntity
  8
0
  6
CONTINUOUS
 62
 30
100
AcDbLine
 10
16.586
 20
-0.834
 30
0.0
 11
16.434
 21
-0.789
 31
0.0
  0
LINE
  5
42
100
AcDbEntity
  8
0
  6
CONTINUOUS
 62
 30
100
AcDbLine
 10
16.434
 20
-0.789
 30
0.0
 11
16.426
 21
-0.619
 31
0.0
  0
ARC
  5
43
100
AcDbEntity
  8
0
  6
CONTINUOUS
 62
 30
100
AcDbCircle
 10
16.201
 20
-0.66
 30
0.0
 40
0.229
100
AcDbArc
 50
10.306
 51
54.571
  0
ARC
  5
44
100
AcDbEntity
  8
0
  6
CONTINUOUS
 62
 30
100
AcDbCircle
 10
16.167
 20
-0.755
 30
0.0
 40
0.326
100
AcDbArc
 50
59.313
 51
94.771
  0
LINE
  5
45
100
AcDbEntity
  8
0
  6
CONTINUOUS
 62
 30
100
AcDbLine
 10
15.743
 20
-0.609
 30
0.0
 11
15.666
 21
-0.531
 31
0.0
  0
ARC
  5
46
100
AcDbEntity
  8
0
  6
CONTINUOUS
 62
 30
100
AcDbCircle
 10
16.227
 20
-1.154
 30
0.0
 40
0.728
100
AcDbArc
 50
117.698
 51
131.607
  0
ARC
  5
47
100
AcDbEntity
  8
0
  6
CONTINUOUS
 62
 30
100
AcDbCircle
 10
16.19
 20
-1.025
 30
0.0
 40
0.598
100
AcDbArc
 50
94.771
 51
120.248
  0
ARC
  5
48
100
AcDbEntity
  8
0
  6
CONTINUOUS
 62
 30
100
AcDbCircle
 10
15.455
 20
-0.394
 30
0.0
 40
0.191
100
AcDbArc
 50
-129.198
 51
-45.714
  0
ARC
  5
49
100
AcDbEntity
  8
0
  6
CONTINUOUS
 62
 30
100
AcDbCircle
 10
15.627
 20
-0.57
 30
0.0
 40
0.055
100
AcDbArc
 50
45.0
 51
134.286
  0
LINE
  5
4A
100
AcDbEntity
  8
0
  6
CONTINUOUS
 62
 30
100
AcDbLine
 10
15.203
 20
-0.582
 30
0.0
 11
15.238
 21
-0.547
 31
0.0
  0
ARC
  5
4B
100
AcDbEntity
  8
0
  6
CONTINUOUS
 62
 30
100
AcDbCircle
 10
15.262
 20
-0.64
 30
0.0
 40
0.083
100
AcDbArc
 50
135.0
 51
225.0
  0
ARC
  5
4C
100
AcDbEntity
  8
0
  6
CONTINUOUS
 62
 30
100
AcDbCircle
 10
15.289
 20
-0.598
 30
0.0
 40
0.072
100
AcDbArc
 50
50.802
 51
135.0
  0
ARC
  5
4D
100
AcDbEntity
  8
0
  6
CONTINUOUS
 62
 30
100
AcDbCircle
 10
16.709
 20
-0.688
 30
0.0
 40
0.056
100
AcDbArc
 50
70.075
 51
157.079
  0
ARC
  5
4E
100
AcDbEntity
  8
0
  6
CONTINUOUS
 62
 30
100
AcDbCircle
 10
20.115
 20
-0.709
 30
0.0
 40
0.053
100
AcDbArc
 50
19.765
 51
112.602
  0
LINE
  5
4F
100
AcDbEntity
  8
0
  6
CONTINUOUS
 62
 30
100
AcDbLine
 10
18.157
 20
0.319
 30
0.0
 11
18.157
 21
0.354
 31
0.0
  0
LINE
  5
50
100
AcDbEntity
  8
0
  6
CONTINUOUS
 62
 30
100
AcDbLine
 10
14.61
 20
-0.427
 30
0.0
 11
22.063
 21
-0.427
 31
0.0
  0
LINE
  5
51
100
AcDbEntity
  8
0
  6
CONTINUOUS
 62
 30
100
AcDbLine
 10
15.179
 20
-0.64
 30
0.0
 11
15.179
 21
-2.028
 31
0.0
  0
LINE
  5
52
100
AcDbEntity
  8
0
  6
CONTINUOUS
 62
 30
100
AcDbLine
 10
21.676
 20
-0.671
 30
0.0
 11
21.676
 21
-1.871
 31
0.0
  0
DIMENSION
  5
62
100
AcDbEntity
  8
0
  6
CONTINUOUS
 62
  7
100
AcDbDimension
  2
*D0
 10
21.676
 20
-3.1
 30
0.0
 11
18.427
 21
-2.94
 31
0.0
  1
<>
  3
STANDARD
100
AcDbAlignedDimension
 13
15.179
 23
-1.384
 33
0.0
 14
21.676
 24
-1.686
 34
0.0
100
AcDbRotatedDimension
1001
ACAD
1000
DSTYLE
1002
{
1070
 41
1040
0.125
1070
 45
1040
0.0
1070
140
1040
0.117
1002
}
  0
DIMENSION
  5
72
100
AcDbEntity
  8
0
  6
CONTINUOUS
 62
  7
100
AcDbDimension
  2
*D1
 10
22.847
 20
-1.306
 30
0.0
 11
22.847
 21
-0.866
 31
0.0
  1
<>
  3
STANDARD
100
AcDbAlignedDimension
 13
21.734
 23
-0.427
 33
0.0
 14
20.853
 24
-1.306
 34
0.0
 50
-90.0
100
AcDbRotatedDimension
1001
ACAD
1000
DSTYLE
1002
{
1070
 41
1040
0.125
1070
 45
1040
0.0
1070
140
1040
0.117
1002
}
  0
ENDSEC
  0
SECTION
  2
OBJECTS
  0
DICTIONARY
  5
19
100
AcDbDictionary
  3
ACAD_GROUP
350
1A
  3
ACAD_MLINESTYLE
350
1B
  0
DICTIONARY
  5
1A
102
{ACAD_REACTORS
330
19
102
}
100
AcDbDictionary
  0
DICTIONARY
  5
1B
102
{ACAD_REACTORS
330
19
102
}
100
AcDbDictionary
  3
STANDARD
350
1C
  0
MLINESTYLE
  5
1C
100
AcDbMlineStyle
  2
STANDARD
 70
  0
  3

 62
256
 51
90.0
 52
90.0
 71
  3
 49
0.25
 62
  7
  6
BYLAYER
 49
0.0
 62
  7
  6
BYLAYER
 49
-0.25
 62
  7
  6
BYLAYER
  0
ENDSEC
  0
EOF
