  0
SECTION
  2
HEADER
  9
$ACADVER
  1
AC1015
  9
$ACADMAINTVER
 70
     6
  9
$DWGCODEPAGE
  3
ANSI_1252
  9
$INSBASE
 10
0.0
 20
0.0
 30
0.0
  9
$EXTMIN
 10
0.0
 20
0.0
 30
0.0
  9
$EXTMAX
 10
8.5
 20
11.0
 30
0.0
  9
$LIMMIN
 10
0.0
 20
0.0
  9
$LIMMAX
 10
8.5
 20
11.0
  9
$ORTHOMODE
 70
     0
  9
$REGENMODE
 70
     1
  9
$FILLMODE
 70
     1
  9
$QTEXTMODE
 70
     0
  9
$MIRRTEXT
 70
     1
  9
$LTSCALE
 40
1.0
  9
$ATTMODE
 70
     1
  9
$TEXTSIZE
 40
0.5
  9
$TRACEWID
 40
1.0
  9
$TEXTSTYLE
  7
STANDARD
  9
$CLAYER
  8
0
  9
$CELTYPE
  6
Continuous
  9
$CECOLOR
 62
     7
  9
$CELTSCALE
 40
1.0
  9
$DISPSILH
 70
     0
  9
$DIMSCALE
 40
1.0
  9
$DIMASZ
 40
0.19
  9
$DIMEXO
 40
0.0625
  9
$DIMDLI
 40
0.375
  9
$DIMRND
 40
0.03125
  9
$DIMDLE
 40
0.0
  9
$DIMEXE
 40
0.125
  9
$DIMTP
 40
0.0
  9
$DIMTM
 40
0.0
  9
$DIMTXT
 40
0.116667
  9
$DIMCEN
 40
0.09
  9
$DIMTSZ
 40
0.0
  9
$DIMTOL
 70
     0
  9
$DIMLIM
 70
     0
  9
$DIMTIH
 70
     1
  9
$DIMTOH
 70
     1
  9
$DIMSE1
 70
     0
  9
$DIMSE2
 70
     0
  9
$DIMTAD
 70
     1
  9
$DIMZIN
 70
     0
  9
$DIMBLK
  1

  9
$DIMASO
 70
     0
  9
$DIMSHO
 70
     1
  9
$DIMPOST
  1
<>in
  9
$DIMAPOST
  1

  9
$DIMALT
 70
     0
  9
$DIMALTD
 70
     2
  9
$DIMALTF
 40
1.0
  9
$DIMLFAC
 40
1.0
  9
$DIMTOFL
 70
     1
  9
$DIMTVP
 40
0.0
  9
$DIMTIX
 70
     1
  9
$DIMSOXD
 70
     0
  9
$DIMSAH
 70
     0
  9
$DIMBLK1
  1

  9
$DIMBLK2
  1

  9
$DIMSTYLE
  2
STANDARD
  9
$DIMCLRD
 70
     7
  9
$DIMCLRE
 70
     7
  9
$DIMCLRT
 70
     7
  9
$DIMTFAC
 40
1.0
  9
$DIMGAP
 40
0.0625
  9
$DIMJUST
 70
     0
  9
$DIMSD1
 70
     0
  9
$DIMSD2
 70
     0
  9
$DIMTOLJ
 70
     1
  9
$DIMTZIN
 70
     0
  9
$DIMALTZ
 70
     0
  9
$DIMALTTZ
 70
     0
  9
$DIMUPT
 70
     0
  9
$DIMDEC
 70
     0
  9
$DIMTDEC
 70
     0
  9
$DIMALTU
 70
     2
  9
$DIMALTTD
 70
     2
  9
$DIMTXSTY
  7
STANDARD
  9
$DIMAUNIT
 70
     0
  9
$DIMADEC
 70
     0
  9
$DIMALTRND
 40
0.0
  9
$DIMAZIN
 70
     0
  9
$DIMDSEP
 70
     0
  9
$DIMATFIT
 70
     0
  9
$DIMFRAC
 70
     0
  9
$DIMLDRBLK
  1

  9
$DIMLUNIT
 70
     5
  9
$DIMLWD
 70
     0
  9
$DIMLWE
 70
     0
  9
$DIMTMOVE
 70
     0
  9
$LUNITS
 70
     2
  9
$LUPREC
 70
     2
  9
$SKETCHINC
 40
1.0
  9
$FILLETRAD
 40
1.0
  9
$AUNITS
 70
     0
  9
$AUPREC
 70
     2
  9
$MENU
  1
acad
  9
$ELEVATION
 40
0.0
  9
$PELEVATION
 40
0.0
  9
$THICKNESS
 40
0.0
  9
$LIMCHECK
 70
     0
  9
$CHAMFERA
 40
0.0
  9
$CHAMFERB
 40
0.0
  9
$CHAMFERC
 40
0.0
  9
$CHAMFERD
 40
0.0
  9
$SKPOLY
 70
     0
  9
$TDCREATE
 40
0.000000000
  9
$TDUCREATE
 40
0.000000000
  9
$TDUPDATE
 40
0.000000000
  9
$TDUUPDATE
 40
0.000000000
  9
$TDINDWG
 40
0.0000000000
  9
$TDUSRTIMER
 40
0.0000000000
  9
$USRTIMER
 70
     1
  9
$ANGBASE
 50
0.0
  9
$ANGDIR
 70
     0
  9
$PDMODE
 70
     0
  9
$PDSIZE
 40
0.0
  9
$PLINEWID
 40
0.0
  9
$SPLFRAME
 70
     0
  9
$SPLINETYPE
 70
     6
  9
$SPLINESEGS
 70
    20
  9
$HANDSEED
  5
A8
  9
$SURFTAB1
 70
     6
  9
$SURFTAB2
 70
     6
  9
$SURFTYPE
 70
     6
  9
$SURFU
 70
     6
  9
$SURFV
 70
     6
  9
$UCSBASE
  2

  9
$UCSNAME
  2

  9
$UCSORG
 10
0.0
 20
0.0
 30
0.0
  9
$UCSXDIR
 10
1.0
 20
0.0
 30
0.0
  9
$UCSYDIR
 10
0.0
 20
1.0
 30
0.0
  9
$UCSORTHOREF
  2

  9
$UCSORTHOVIEW
 70
     0
  9
$UCSORGTOP
 10
0.0
 20
0.0
 30
0.0
  9
$UCSORGBOTTOM
 10
0.0
 20
0.0
 30
0.0
  9
$UCSORGLEFT
 10
0.0
 20
0.0
 30
0.0
  9
$UCSORGRIGHT
 10
0.0
 20
0.0
 30
0.0
  9
$UCSORGFRONT
 10
0.0
 20
0.0
 30
0.0
  9
$UCSORGBACK
 10
0.0
 20
0.0
 30
0.0
  9
$PUCSBASE
  2

  9
$PUCSNAME
  2

  9
$PUCSORG
 10
0.0
 20
0.0
 30
0.0
  9
$PUCSXDIR
 10
1.0
 20
0.0
 30
0.0
  9
$PUCSYDIR
 10
0.0
 20
1.0
 30
0.0
  9
$PUCSORTHOREF
  2

  9
$PUCSORTHOVIEW
 70
     0
  9
$PUCSORGTOP
 10
0.0
 20
0.0
 30
0.0
  9
$PUCSORGBOTTOM
 10
0.0
 20
0.0
 30
0.0
  9
$PUCSORGLEFT
 10
0.0
 20
0.0
 30
0.0
  9
$PUCSORGRIGHT
 10
0.0
 20
0.0
 30
0.0
  9
$PUCSORGFRONT
 10
0.0
 20
0.0
 30
0.0
  9
$PUCSORGBACK
 10
0.0
 20
0.0
 30
0.0
  9
$USERI1
 70
     0
  9
$USERI2
 70
     0
  9
$USERI3
 70
     0
  9
$USERI4
 70
     0
  9
$USERI5
 70
     0
  9
$USERR1
 40
0.0
  9
$USERR2
 40
0.0
  9
$USERR3
 40
0.0
  9
$USERR4
 40
0.0
  9
$USERR5
 40
0.0
  9
$WORLDVIEW
 70
     1
  9
$SHADEDGE
 70
     3
  9
$SHADEDIF
 70
    70
  9
$TILEMODE
 70
     0
  9
$MAXACTVP
 70
    16
  9
$PINSBASE
 10
0.0
 20
0.0
 30
0.0
  9
$PLIMCHECK
 70
     0
  9
$PEXTMIN
 10
1.25
 20
-1.25
 30
0.0
  9
$PEXTMAX
 10
9.75
 20
9.75
 30
0.0
  9
$PLIMMIN
 10
1.25
 20
-1.25
  9
$PLIMMAX
 10
9.75
 20
9.75
  9
$UNITMODE
 70
     0
  9
$VISRETAIN
 70
     0
  9
$PLINEGEN
 70
     1
  9
$PSLTSCALE
 70
     1
  9
$TREEDEPTH
 70
  3020
  9
$CMLSTYLE
  2
STANDARD
  9
$CMLJUST
 70
     0
  9
$CMLSCALE
 40
1.0
  9
$PROXYGRAPHICS
 70
     0
  9
$MEASUREMENT
 70
     0
  9
$CELWEIGHT
370
     0
  9
$ENDCAPS
280
     0
  9
$JOINSTYLE
280
     0
  9
$LWDISPLAY
290
     0
  9
$INSUNITS
 70
     0
  9
$HYPERLINKBASE
  1

  9
$STYLESHEET
  1

  9
$XEDIT
290
     1
  9
$CEPSNTYPE
380
     0
  9
$PSTYLEMODE
290
     1
  9
$FINGERPRINTGUID
  2

  9
$VERSIONGUID
  2

  9
$EXTNAMES
290
     1
  9
$PSVPSCALE
 40
0.0
  0
ENDSEC
  0
SECTION
  2
CLASSES
  0
CLASS
  1
LWPOLYLINE
  2
AcDbPolyline
  3
AutoCAD 2000
 90
        0
280
     0
281
     1
  0
CLASS
  1
IMAGE
  2
AcDbRasterImage
  3
ISM
 90
    32895
280
     0
281
     1
  0
CLASS
  1
OLE2FRAME
  2
AcDbOle2Frame
  3
AutoCAD 2000
 90
    32768
280
     0
281
     1
  0
CLASS
  1
HATCH
  2
AcDbHatch
  3
AutoCAD 2000
 90
        0
280
     0
281
     1
  0
CLASS
  1
DICTIONARYVAR
  2
AcDbDictionaryVar
  3
AutoCAD 2000
 90
    32768
280
     0
281
     0
  0
CLASS
  1
RASTERVARIABLES
  2
AcDbRasterVariables
  3
ISM
 90
    32768
280
     0
281
     0
  0
CLASS
  1
IMAGEDEF
  2
AcDbRasterImageDef
  3
ISM
 90
    32768
280
     0
281
     0
  0
CLASS
  1
IMAGEDEF_REACTOR
  2
AcDbRasterImageDefReactor
  3
ISM
 90
    32769
280
     0
281
     0
  0
CLASS
  1
IDBUFFER
  2
AcDbIdBuffer
  3
AutoCAD 2000
 90
    32768
280
     0
281
     0
  0
CLASS
  1
SPATIAL_FILTER
  2
AcDbSpatialFilter
  3
AutoCAD 2000
 90
    32768
280
     0
281
     0
  0
CLASS
  1
XRECORD
  2
AcDbXrecord
  3
AutoCAD 2000
 90
    32768
280
     0
281
     0
  0
CLASS
  1
SORTENTSTABLE
  2
AcDbSortentsTable
  3
AutoCAD 2000
 90
    32768
280
     0
281
     0
  0
CLASS
  1
LAYER_INDEX
  2
AcDbLayerIndex
  3
AutoCAD 2000
 90
    32768
280
     0
281
     0
  0
CLASS
  1
SPATIAL_INDEX
  2
AcDbSpatialIndex
  3
AutoCAD 2000
 90
    32768
280
     0
281
     0
  0
CLASS
  1
OBJECT_PTR
  2
CAseDLPNTableRecord
  3
"ASE-LPNTableRecord"
 90
    32769
280
     0
281
     0
  0
CLASS
  1
LAYOUT
  2
AcDbLayout
  3
AutoCAD 2000
 90
        0
280
     0
281
     0
  0
CLASS
  1
PLOTSETTINGS
  2
AcDbPlotSettings
  3
AutoCAD 2000
 90
    32768
280
     0
281
     0
  0
CLASS
  1
ACDBDICTIONARYWDFLT
  2
AcDbDictionaryWithDefault
  3
AutoCAD 2000
 90
        0
280
     0
281
     0
  0
CLASS
  1
ACDBPLACEHOLDER
  2
AcDbPlaceHolder
  3
AutoCAD 2000
 90
        0
280
     0
281
     0
  0
ENDSEC
  0
SECTION
  2
TABLES
  0
TABLE
  2
VPORT
  5
7
100
AcDbSymbolTable
 70
     1
  0
VPORT
  5
15
100
AcDbSymbolTableRecord
100
AcDbViewportTableRecord
  2
*ACTIVE
 70
     0
 10
0.0
 20
0.0
 11
1.0
 21
1.0
 12
2.845692
 22
-4.757047
 13
0.0
 23
0.0
 14
0.5
 24
0.5
 15
0.5
 25
0.5
 16
0.0
 26
0.0
 36
1.0
 17
0.0
 27
0.0
 37
0.0
 40
30.655419
 41
3.092308
 42
50.0
 43
0.0
 44
0.0
 50
0.0
 51
0.0
 71
     0
 72
   100
 73
     1
 74
     1
 75
     0
 76
     0
 77
     0
 78
     0
281
     0
 65
     0
110
0.0
120
0.0
130
0.0
111
1.0
121
0.0
131
0.0
112
0.0
122
1.0
132
0.0
345
0
346
0
 79
     0
146
0.0
  0
ENDTAB
  0
TABLE
  2
LTYPE
  5
4
100
AcDbSymbolTable
 70
    15
  0
LTYPE
  5
11
100
AcDbSymbolTableRecord
100
AcDbLinetypeTableRecord
  2
ByBlock
 70
    64
  3

 72
    65
 73
     0
 40
0.0
  0
LTYPE
  5
12
100
AcDbSymbolTableRecord
100
AcDbLinetypeTableRecord
  2
ByLayer
 70
    64
  3

 72
    65
 73
     0
 40
0.0
  0
LTYPE
  5
13
100
AcDbSymbolTableRecord
100
AcDbLinetypeTableRecord
  2
Continuous
 70
    64
  3
Solid line
 72
    65
 73
     0
 40
0.0
  0
LTYPE
  5
24
100
AcDbSymbolTableRecord
100
AcDbLinetypeTableRecord
  2
BORDER
 70
     0
  3
BORDER
 72
    65
 73
     6
 40
1.75
 49
0.5
 74
     0
 49
-0.25
 74
     0
 49
0.5
 74
     0
 49
-0.25
 74
     0
 49
0.0
 74
     0
 49
-0.25
 74
     0
  0
LTYPE
  5
25
100
AcDbSymbolTableRecord
100
AcDbLinetypeTableRecord
  2
CENTER
 70
     0
  3
CENTER
 72
    65
 73
     4
 40
2.0
 49
1.25
 74
     0
 49
-0.25
 74
     0
 49
0.25
 74
     0
 49
-0.25
 74
     0
  0
LTYPE
  5
26
100
AcDbSymbolTableRecord
100
AcDbLinetypeTableRecord
  2
DASHDOT
 70
     0
  3
DASHDOT
 72
    65
 73
     4
 40
1.0
 49
0.5
 74
     0
 49
-0.25
 74
     0
 49
0.0
 74
     0
 49
-0.25
 74
     0
  0
LTYPE
  5
27
100
AcDbSymbolTableRecord
100
AcDbLinetypeTableRecord
  2
DASHED
 70
     0
  3
DASHED
 72
    65
 73
     2
 40
0.75
 49
0.5
 74
     0
 49
-0.25
 74
     0
  0
LTYPE
  5
28
100
AcDbSymbolTableRecord
100
AcDbLinetypeTableRecord
  2
DIVIDE
 70
     0
  3
DIVIDE
 72
    65
 73
     6
 40
1.25
 49
0.5
 74
     0
 49
-0.25
 74
     0
 49
0.0
 74
     0
 49
-0.25
 74
     0
 49
0.0
 74
     0
 49
-0.25
 74
     0
  0
LTYPE
  5
29
100
AcDbSymbolTableRecord
100
AcDbLinetypeTableRecord
  2
DOT
 70
     0
  3
DOT
 72
    65
 73
     2
 40
0.25
 49
0.0
 74
     0
 49
-0.25
 74
     0
  0
LTYPE
  5
2A
100
AcDbSymbolTableRecord
100
AcDbLinetypeTableRecord
  2
HIDDEN
 70
     0
  3
HIDDEN
 72
    65
 73
     2
 40
0.375
 49
0.25
 74
     0
 49
-0.125
 74
     0
  0
LTYPE
  5
2B
100
AcDbSymbolTableRecord
100
AcDbLinetypeTableRecord
  2
PHANTOM
 70
     0
  3
PHANTOM
 72
    65
 73
     6
 40
2.5
 49
1.25
 74
     0
 49
-0.25
 74
     0
 49
0.25
 74
     0
 49
-0.25
 74
     0
 49
0.25
 74
     0
 49
-0.25
 74
     0
  0
LTYPE
  5
2C
100
AcDbSymbolTableRecord
100
AcDbLinetypeTableRecord
  2
$INVISIBLE
 70
     0
  3
$INVISIBLE
 72
    65
 73
     2
 40
200.0
 49
-100.0
 74
     0
 49
-100.0
 74
     0
  0
LTYPE
  5
2D
100
AcDbSymbolTableRecord
100
AcDbLinetypeTableRecord
  2
$SNAPEXT
 70
     0
  3
$SNAPEXT
 72
    65
 73
     2
 40
0.04
 49
0.02
 74
     0
 49
-0.02
 74
     0
  0
LTYPE
  5
2E
100
AcDbSymbolTableRecord
100
AcDbLinetypeTableRecord
  2
$CONSTRUCTION
 70
     0
  3
$CONSTRUCTION
 72
    65
 73
     4
 40
0.3
 49
0.2
 74
     0
 49
-0.05
 74
     0
 49
0.0
 74
     0
 49
-0.05
 74
     0
  0
LTYPE
  5
2F
100
AcDbSymbolTableRecord
100
AcDbLinetypeTableRecord
  2
$AUXILIARY
 70
     0
  3
$AUXILIARY
 72
    65
 73
     2
 40
0.1
 49
0.05
 74
     0
 49
-0.05
 74
     0
  0
ENDTAB
  0
TABLE
  2
LAYER
  5
2
100
AcDbSymbolTable
 70
     3
  0
LAYER
  5
14
100
AcDbSymbolTableRecord
100
AcDbLayerTableRecord
  2
0
 70
     0
 62
     7
  6
Continuous
290
     1
370
     0
390
0
1001
TCAD
1000
TCW_LAYER_ORDER
1002
{
1071
        0
1002
}
  0
LAYER
  5
30
100
AcDbSymbolTableRecord
100
AcDbLayerTableRecord
  2
$CONSTRUCTION
 70
     0
 62
     9
  6
$CONSTRUCTION
290
     1
370
     0
390
0
1001
TCAD
1000
TCW_LAYER_ORDER
1002
{
1071
        0
1002
}
  0
LAYER
  5
31
100
AcDbSymbolTableRecord
100
AcDbLayerTableRecord
  2
LAYER_2
 70
     0
 62
     7
  6
Continuous
290
     1
370
     0
390
0
1001
TCAD
1000
TCW_LAYER_ORDER
1002
{
1071
        0
1002
}
  0
ENDTAB
  0
TABLE
  2
STYLE
  5
3
100
AcDbSymbolTable
 70
     4
  0
STYLE
  5
17
100
AcDbSymbolTableRecord
100
AcDbTextStyleTableRecord
  2
STANDARD
 70
     0
 40
0.0
 41
1.0
 50
0.0
 71
     0
 42
0.15
  3

  4

1001
ACAD
1000
Arial
1071
       34
  0
STYLE
  5
33
100
AcDbSymbolTableRecord
100
AcDbTextStyleTableRecord
  2
_TCW_TXTSTY_1
 70
     0
 40
0.0
 41
1.0
 50
0.0
 71
     0
 42
0.6
  3
TIMES.TTF
  4

1001
ACAD
1000
Times New Roman
1071
      290
  0
STYLE
  5
36
100
AcDbSymbolTableRecord
100
AcDbTextStyleTableRecord
  2
_TCW_TXTSTY_2
 70
     0
 40
0.0
 41
1.04
 50
0.0
 71
     0
 42
0.133333
  3
TIMES.TTF
  4

1001
ACAD
1000
Times New Roman
1071
      290
  0
STYLE
  5
A5
100
AcDbSymbolTableRecord
100
AcDbTextStyleTableRecord
  2
_TCW_TXTSTY_3
 70
     0
 40
0.0
 41
1.22
 50
0.0
 71
     0
 42
0.0875
  3
TIMES.TTF
  4

1001
ACAD
1000
Times New Roman
1071
      290
  0
ENDTAB
  0
TABLE
  2
VIEW
  5
5
100
AcDbSymbolTable
 70
     1
  0
VIEW
  5
32
100
AcDbSymbolTableRecord
100
AcDbViewTableRecord
  2
View_0
 70
     0
 40
8.267717
 10
5.846457
 20
4.133858
 41
11.692913
 11
0.0
 21
0.0
 31
1.0
 12
0.0
 22
0.0
 32
0.0
 42
50.0
 43
0.0
 44
0.0
 50
0.0
 71
     0
281
     0
 72
     0
110
0.0
120
0.0
130
0.0
111
1.0
121
0.0
131
0.0
112
0.0
122
1.0
132
0.0
  0
ENDTAB
  0
TABLE
  2
UCS
  5
6
100
AcDbSymbolTable
 70
     0
  0
ENDTAB
  0
TABLE
  2
APPID
  5
8
100
AcDbSymbolTable
 70
     2
  0
APPID
  5
16
100
AcDbSymbolTableRecord
100
AcDbRegAppTableRecord
  2
ACAD
 70
     0
  0
APPID
  5
23
100
AcDbSymbolTableRecord
100
AcDbRegAppTableRecord
  2
TCAD
 70
     0
  0
ENDTAB
  0
TABLE
  2
DIMSTYLE
  5
9
100
AcDbSymbolTable
 70
     1
100
AcDbDimStyleTable
 71
     0
  0
DIMSTYLE
105
18
100
AcDbSymbolTableRecord
100
AcDbDimStyleTableRecord
  2
STANDARD
 70
     0
  3
<>in
  4

 40
1.0
 41
0.19
 42
0.0625
 43
0.375
 44
0.125
 45
0.03125
 46
0.0
 47
0.0
 48
0.0
 71
     0
 72
     0
 73
     1
 74
     1
 75
     0
 76
     0
 77
     1
 78
     0
 79
     0
140
0.116667
141
0.09
142
0.0
143
1.0
144
1.0
145
0.0
146
1.0
147
0.0625
148
0.01
170
     0
171
     2
172
     1
173
     0
174
     1
175
     0
176
     7
177
     7
178
     7
179
     0
271
     0
272
     0
273
     2
274
     2
275
     0
276
     0
277
     5
278
    46
279
     0
280
     0
281
     0
282
     0
283
     1
284
     0
285
     0
286
     0
288
     0
340
33
341
0
342
0
343
0
344
0
371
    -2
372
    -2
  0
ENDTAB
  0
TABLE
  2
BLOCK_RECORD
  5
1
100
AcDbSymbolTable
 70
     4
  0
BLOCK_RECORD
  5
A
100
AcDbSymbolTableRecord
100
AcDbBlockTableRecord
  2
*MODEL_SPACE
340
34
  0
BLOCK_RECORD
  5
B
100
AcDbSymbolTableRecord
100
AcDbBlockTableRecord
  2
*PAPER_SPACE
340
A7
  0
BLOCK_RECORD
  5
65
100
AcDbSymbolTableRecord
100
AcDbBlockTableRecord
  2
*D0
340
0
  0
BLOCK_RECORD
  5
75
100
AcDbSymbolTableRecord
100
AcDbBlockTableRecord
  2
*D1
340
0
  0
BLOCK_RECORD
  5
85
100
AcDbSymbolTableRecord
100
AcDbBlockTableRecord
  2
*D2
340
0
  0
BLOCK_RECORD
  5
94
100
AcDbSymbolTableRecord
100
AcDbBlockTableRecord
  2
*D3
340
0
  0
ENDTAB
  0
ENDSEC
  0
SECTION
  2
BLOCKS
  0
BLOCK
  5
D
100
AcDbEntity
  8
0
100
AcDbBlockBegin
  2
*MODEL_SPACE
 70
     0
 10
0.0
 20
0.0
 30
0.0
  3
*MODEL_SPACE
  1

  0
ENDBLK
  5
E
100
AcDbEntity
  8
0
100
AcDbBlockEnd
  0
BLOCK
  5
F
100
AcDbEntity
 67
     1
  8
0
100
AcDbBlockBegin
  2
*PAPER_SPACE
 70
     0
 10
0.0
 20
0.0
 30
0.0
  3
*PAPER_SPACE
  1

  0
ENDBLK
  5
10
100
AcDbEntity
 67
     1
  8
0
100
AcDbBlockEnd
  0
BLOCK
  5
66
100
AcDbEntity
  8
0
100
AcDbBlockBegin
  2
*D0
 70
     1
 10
0.0
 20
0.0
 30
0.0
  3
*D0
  1

  0
LINE
  5
67
100
AcDbEntity
  8
0
  6
Continuous
 62
     7
100
AcDbLine
 10
7.620041
 20
7.751147
 30
0.0
 11
2.457169
 21
7.751147
 31
0.0
1001
ACAD
1000
TCW40_DEV_WIDTH
1002
{
1040
-3.0
1002
}
  0
LINE
  5
68
100
AcDbEntity
  8
0
  6
Continuous
 62
     7
100
AcDbLine
 10
2.976778
 20
2.290454
 30
0.0
 11
2.457169
 21
2.290454
 31
0.0
1001
ACAD
1000
TCW40_DEV_WIDTH
1002
{
1040
-3.0
1002
}
  0
LWPOLYLINE
  5
69
100
AcDbEntity
  8
0
  6
Continuous
 62
     7
100
AcDbPolyline
 90
        4
 70
     0
 10
2.582169
 20
7.626147
 10
2.582169
 20
7.626147
 10
2.582169
 20
7.626147
 10
2.582169
 20
5.137467
  0
LWPOLYLINE
  5
6A
100
AcDbEntity
  8
0
  6
Continuous
 62
     7
100
AcDbPolyline
 90
        4
 70
     0
 10
2.582169
 20
2.415454
 10
2.582169
 20
2.415454
 10
2.582169
 20
2.415454
 10
2.582169
 20
4.904134
  0
LWPOLYLINE
  5
6D
100
AcDbEntity
  8
0
  6
Continuous
 62
     7
100
AcDbPolyline
 90
        4
 70
     0
 10
2.582169
 20
7.751147
 40
0.0
 41
0.0
 10
2.565919
 20
7.626147
 40
0.0
 41
0.0
 10
2.598419
 20
7.626147
 40
0.0
 41
0.0
 10
2.582169
 20
7.751147
 40
0.0
 41
0.0
  0
HATCH
  5
6B
100
AcDbEntity
  8
0
  6
Continuous
 62
     7
100
AcDbHatch
 10
0.0
 20
0.0
 30
0.0
210
0.0
220
0.0
230
1.0
  2
SOLID
 70
     1
 71
     1
 91
        1
 92
        3
 72
     0
 73
     1
 93
        3
 10
2.5821689999999999
 20
7.7511469999999996
 10
2.5659190000000001
 20
7.6261469999999996
 10
2.5984189999999998
 20
7.6261469999999996
 97
        1
330
6C
 75
     0
 76
     0
 98
        0
  0
LWPOLYLINE
  5
70
100
AcDbEntity
  8
0
  6
Continuous
 62
     7
100
AcDbPolyline
 90
        4
 70
     0
 10
2.582169
 20
2.290454
 40
0.0
 41
0.0
 10
2.598419
 20
2.415454
 40
0.0
 41
0.0
 10
2.565919
 20
2.415454
 40
0.0
 41
0.0
 10
2.582169
 20
2.290454
 40
0.0
 41
0.0
  0
HATCH
  5
6E
100
AcDbEntity
  8
0
  6
Continuous
 62
     7
100
AcDbHatch
 10
0.0
 20
0.0
 30
0.0
210
0.0
220
0.0
230
1.0
  2
SOLID
 70
     1
 71
     1
 91
        1
 92
        3
 72
     0
 73
     1
 93
        3
 10
2.5821689999999999
 20
2.290454
 10
2.5984189999999998
 20
2.415454
 10
2.5659190000000001
 20
2.415454
 97
        1
330
6F
 75
     0
 76
     0
 98
        0
  0
TEXT
  5
71
100
AcDbEntity
  8
0
  6
Continuous
 62
     7
100
AcDbText
 10
2.335855
 20
4.962467
 30
0.0
 40
0.116667
  1
5 1/2
  7
_TCW_TXTSTY_1
 72
     1
 11
2.513882
 21
5.020801
 31
0.0
100
AcDbText
 73
     2
  0
TEXT
  5
72
100
AcDbEntity
  8
0
  6
Continuous
 62
     7
100
AcDbText
 10
2.691909
 20
4.962467
 30
0.0
 40
0.116667
  1
in
  7
_TCW_TXTSTY_1
 11
2.691909
 21
5.079134
 31
0.0
100
AcDbText
 73
     3
  0
ENDBLK
  5
73
100
AcDbEntity
  8
0
100
AcDbBlockEnd
  0
BLOCK
  5
76
100
AcDbEntity
  8
0
100
AcDbBlockBegin
  2
*D1
 70
     1
 10
0.0
 20
0.0
 30
0.0
  3
*D1
  1

  0
LINE
  5
77
100
AcDbEntity
  8
0
  6
Continuous
 62
     7
100
AcDbLine
 10
3.412678
 20
4.043987
 30
0.0
 11
3.412678
 21
8.749751
 31
0.0
1001
ACAD
1000
TCW40_DEV_WIDTH
1002
{
1040
-3.0
1002
}
  0
LINE
  5
78
100
AcDbEntity
  8
0
  6
Continuous
 62
     7
100
AcDbLine
 10
9.06733
 20
8.013617
 30
0.0
 11
9.06733
 21
8.749751
 31
0.0
1001
ACAD
1000
TCW40_DEV_WIDTH
1002
{
1040
-3.0
1002
}
  0
LWPOLYLINE
  5
79
100
AcDbEntity
  8
0
  6
Continuous
 62
     7
100
AcDbPolyline
 90
        4
 70
     0
 10
3.537678
 20
8.624751
 10
3.537678
 20
8.624751
 10
3.537678
 20
8.624751
 10
6.240004
 20
8.624751
  0
LWPOLYLINE
  5
7A
100
AcDbEntity
  8
0
  6
Continuous
 62
     7
100
AcDbPolyline
 90
        4
 70
     0
 10
8.94233
 20
8.624751
 10
8.94233
 20
8.624751
 10
8.94233
 20
8.624751
 10
6.240004
 20
8.624751
  0
LWPOLYLINE
  5
7D
100
AcDbEntity
  8
0
  6
Continuous
 62
     7
100
AcDbPolyline
 90
        4
 70
     0
 10
3.412678
 20
8.624751
 40
0.0
 41
0.0
 10
3.537678
 20
8.608501
 40
0.0
 41
0.0
 10
3.537678
 20
8.641001
 40
0.0
 41
0.0
 10
3.412678
 20
8.624751
 40
0.0
 41
0.0
  0
HATCH
  5
7B
100
AcDbEntity
  8
0
  6
Continuous
 62
     7
100
AcDbHatch
 10
0.0
 20
0.0
 30
0.0
210
0.0
220
0.0
230
1.0
  2
SOLID
 70
     1
 71
     1
 91
        1
 92
        3
 72
     0
 73
     1
 93
        3
 10
3.4126779999999997
 20
8.6247509999999998
 10
3.5376779999999997
 20
8.6085010000000004
 10
3.5376779999999997
 20
8.6410009999999993
 97
        1
330
7C
 75
     0
 76
     0
 98
        0
  0
LWPOLYLINE
  5
80
100
AcDbEntity
  8
0
  6
Continuous
 62
     7
100
AcDbPolyline
 90
        4
 70
     0
 10
9.06733
 20
8.624751
 40
0.0
 41
0.0
 10
8.94233
 20
8.641001
 40
0.0
 41
0.0
 10
8.94233
 20
8.608501
 40
0.0
 41
0.0
 10
9.06733
 20
8.624751
 40
0.0
 41
0.0
  0
HATCH
  5
7E
100
AcDbEntity
  8
0
  6
Continuous
 62
     7
100
AcDbHatch
 10
0.0
 20
0.0
 30
0.0
210
0.0
220
0.0
230
1.0
  2
SOLID
 70
     1
 71
     1
 91
        1
 92
        3
 72
     0
 73
     1
 93
        3
 10
9.0673300000000001
 20
8.6247509999999998
 10
8.9423300000000001
 20
8.6410009999999993
 10
8.9423300000000001
 20
8.6085010000000004
 97
        1
330
7F
 75
     0
 76
     0
 98
        0
  0
TEXT
  5
81
100
AcDbEntity
  8
0
  6
Continuous
 62
     7
100
AcDbText
 10
5.905898
 20
8.72614
 30
0.0
 40
0.116667
  1
5 11/16
  7
_TCW_TXTSTY_1
 72
     1
 11
6.171717
 21
8.784474
 31
0.0
100
AcDbText
 73
     2
  0
TEXT
  5
82
100
AcDbEntity
  8
0
  6
Continuous
 62
     7
100
AcDbText
 10
6.437535
 20
8.72614
 30
0.0
 40
0.116667
  1
in
  7
_TCW_TXTSTY_1
 11
6.437535
 21
8.842807
 31
0.0
100
AcDbText
 73
     3
  0
ENDBLK
  5
83
100
AcDbEntity
  8
0
100
AcDbBlockEnd
  0
BLOCK
  5
86
100
AcDbEntity
  8
0
100
AcDbBlockBegin
  2
*D2
 70
     1
 10
0.0
 20
0.0
 30
0.0
  3
*D2
  1

  0
LINE
  5
87
100
AcDbEntity
  8
0
  6
Continuous
 62
     7
100
AcDbLine
 10
9.00483
 20
7.751147
 30
0.0
 11
8.810182
 21
7.751147
 31
0.0
1001
ACAD
1000
TCW40_DEV_WIDTH
1002
{
1040
-3.0
1002
}
  0
LINE
  5
88
100
AcDbEntity
  8
0
  6
Continuous
 62
     7
100
AcDbLine
 10
7.839571
 20
7.705566
 30
0.0
 11
8.730852
 21
8.566267
 31
0.0
1001
ACAD
1000
TCW40_DEV_WIDTH
1002
{
1040
-3.0
1002
}
  0
ARC
  5
89
100
AcDbEntity
  8
0
  6
Continuous
 62
     7
100
AcDbCircle
 10
7.886771
 20
7.751147
 30
0.0
 40
1.048411
100
AcDbArc
 50
29.070564
 51
37.164679
1001
ACAD
1000
TCW40_DEV_WIDTH
1002
{
1040
-3.0
1002
}
  0
ARC
  5
8A
100
AcDbEntity
  8
0
  6
Continuous
 62
     7
100
AcDbCircle
 10
7.886771
 20
7.751147
 30
0.0
 40
1.048411
100
AcDbArc
 50
6.835317
 51
15.26755
1001
ACAD
1000
TCW40_DEV_WIDTH
1002
{
1040
-3.0
1002
}
  0
LWPOLYLINE
  5
8D
100
AcDbEntity
  8
0
  6
Continuous
 62
     7
100
AcDbPolyline
 90
        4
 70
     0
 10
8.935182
 20
7.751147
 40
0.0
 41
0.0
 10
8.943951
 20
7.876893
 40
0.0
 41
0.0
 10
8.911509
 20
7.874956
 40
0.0
 41
0.0
 10
8.935182
 20
7.751147
 40
0.0
 41
0.0
  0
HATCH
  5
8B
100
AcDbEntity
  8
0
  6
Continuous
 62
     7
100
AcDbHatch
 10
0.0
 20
0.0
 30
0.0
210
0.0
220
0.0
230
1.0
  2
SOLID
 70
     1
 71
     1
 91
        1
 92
        3
 72
     0
 73
     1
 93
        3
 10
8.9351820162633846
 20
7.7511469999999996
 10
8.9439513618894591
 20
7.8768934157631953
 10
8.9115091630689331
 20
7.8749559597793066
 97
        1
330
8C
 75
     0
 76
     0
 98
        0
  0
LWPOLYLINE
  5
90
100
AcDbEntity
  8
0
  6
Continuous
 62
     7
100
AcDbPolyline
 90
        4
 70
     0
 10
8.640935
 20
8.479434
 40
0.0
 41
0.0
 10
8.709911
 20
8.373929
 40
0.0
 41
0.0
 10
8.734594
 20
8.395072
 40
0.0
 41
0.0
 10
8.640935
 20
8.479434
 40
0.0
 41
0.0
  0
HATCH
  5
8E
100
AcDbEntity
  8
0
  6
Continuous
 62
     7
100
AcDbHatch
 10
0.0
 20
0.0
 30
0.0
210
0.0
220
0.0
230
1.0
  2
SOLID
 70
     1
 71
     1
 91
        1
 92
        3
 72
     0
 73
     1
 93
        3
 10
8.6409348405689599
 20
8.4794343751152272
 10
8.7099109393999132
 20
8.3739291132082361
 10
8.7345937754263954
 20
8.395071667587727
 97
        1
330
8F
 75
     0
 76
     0
 98
        0
  0
TEXT
  5
91
100
AcDbEntity
  8
0
  6
Continuous
 62
     7
100
AcDbText
 10
8.735941
 20
8.085555
 30
0.0
 40
0.116667
  1
44%%d
  7
_TCW_TXTSTY_1
 72
     1
 11
8.858841
 21
8.143889
 31
0.0
100
AcDbText
 73
     2
  0
ENDBLK
  5
92
100
AcDbEntity
  8
0
100
AcDbBlockEnd
  0
BLOCK
  5
95
100
AcDbEntity
  8
0
100
AcDbBlockBegin
  2
*D3
 70
     1
 10
0.0
 20
0.0
 30
0.0
  3
*D3
  1

  0
LINE
  5
96
100
AcDbEntity
  8
0
  6
Continuous
 62
     7
100
AcDbLine
 10
3.412678
 20
2.352954
 30
0.0
 11
3.412678
 21
2.537428
 31
0.0
1001
ACAD
1000
TCW40_DEV_WIDTH
1002
{
1040
-3.0
1002
}
  0
LINE
  5
97
100
AcDbEntity
  8
0
  6
Continuous
 62
     7
100
AcDbLine
 10
3.367719
 20
3.38715
 30
0.0
 11
2.590373
 21
2.636476
 31
0.0
1001
ACAD
1000
TCW40_DEV_WIDTH
1002
{
1040
-3.0
1002
}
  0
ARC
  5
98
100
AcDbEntity
  8
0
  6
Continuous
 62
     7
100
AcDbCircle
 10
3.412678
 20
3.430566
 30
0.0
 40
1.018138
100
AcDbArc
 50
-104.532115
 51
-97.038808
1001
ACAD
1000
TCW40_DEV_WIDTH
1002
{
1040
-3.0
1002
}
  0
ARC
  5
99
100
AcDbEntity
  8
0
  6
Continuous
 62
     7
100
AcDbCircle
 10
3.412678
 20
3.430566
 30
0.0
 40
1.018138
100
AcDbArc
 50
-128.961195
 51
-122.041926
1001
ACAD
1000
TCW40_DEV_WIDTH
1002
{
1040
-3.0
1002
}
  0
LWPOLYLINE
  5
9C
100
AcDbEntity
  8
0
  6
Continuous
 62
     7
100
AcDbPolyline
 90
        4
 70
     0
 10
2.680291
 20
2.723308
 40
0.0
 41
0.0
 10
2.761505
 20
2.626906
 40
0.0
 41
0.0
 10
2.783453
 20
2.650875
 40
0.0
 41
0.0
 10
2.680291
 20
2.723308
 40
0.0
 41
0.0
  0
HATCH
  5
9A
100
AcDbEntity
  8
0
  6
Continuous
 62
     7
100
AcDbHatch
 10
0.0
 20
0.0
 30
0.0
210
0.0
220
0.0
230
1.0
  2
SOLID
 70
     1
 71
     1
 91
        1
 92
        3
 72
     0
 73
     1
 93
        3
 10
2.6802907782324032
 20
2.7233079606419865
 10
2.7615047518250226
 20
2.6269059223165581
 10
2.7834533187019832
 20
2.6508748691446442
 97
        1
330
9B
 75
     0
 76
     0
 98
        0
  0
LWPOLYLINE
  5
9F
100
AcDbEntity
  8
0
  6
Continuous
 62
     7
100
AcDbPolyline
 90
        4
 70
     0
 10
3.412678
 20
2.412428
 40
0.0
 41
0.0
 10
3.288911
 20
2.436321
 40
0.0
 41
0.0
 10
3.286916
 20
2.403882
 40
0.0
 41
0.0
 10
3.412678
 20
2.412428
 40
0.0
 41
0.0
  0
HATCH
  5
9D
100
AcDbEntity
  8
0
  6
Continuous
 62
     7
100
AcDbHatch
 10
0.0
 20
0.0
 30
0.0
210
0.0
220
0.0
230
1.0
  2
SOLID
 70
     1
 71
     1
 91
        1
 92
        3
 72
     0
 73
     1
 93
        3
 10
3.4126780000000001
 20
2.4124280050086528
 10
3.2889112735116579
 20
2.4363206799187562
 10
3.2869162099642879
 20
2.4038819727706295
 97
        1
330
9E
 75
     0
 76
     0
 98
        0
  0
TEXT
  5
A0
100
AcDbEntity
  8
0
  6
Continuous
 62
     7
100
AcDbText
 10
2.89196
 20
2.435032
 30
0.0
 40
0.116667
  1
46%%d
  7
_TCW_TXTSTY_1
 72
     1
 11
3.01486
 21
2.493365
 31
0.0
100
AcDbText
 73
     2
  0
ENDBLK
  5
A1
100
AcDbEntity
  8
0
100
AcDbBlockEnd
  0
ENDSEC
  0
SECTION
  2
ENTITIES
  0
VIEWPORT
  5
35
100
AcDbEntity
 67
     1
  8
0
100
AcDbViewport
 10
5.7049
 20
5.124904
 30
0.0
 40
23.222635
 41
7.663855
 68
     1
 69
     1
 12
5.7049
 22
5.124904
 13
0.0
 23
0.0
 14
0.5
 24
0.5
 15
0.5
 25
0.5
 16
0.0
 26
0.0
 36
1.0
 17
0.0
 27
0.0
 37
0.0
 42
50.0
 43
0.0
 44
0.0
 45
7.663855
 50
0.0
 51
0.0
 72
   100
 90
    32800
340
0
  1

281
     0
 71
     0
 74
     1
110
0.0
120
0.0
130
0.0
111
1.0
121
0.0
131
0.0
112
0.0
122
1.0
132
0.0
345
0
346
0
 79
     0
146
0.0
  0
MTEXT
  5
37
100
AcDbEntity
 67
     1
  8
0
  6
Continuous
 62
     7
100
AcDbMText
 10
4.344982
 20
2.010954
 30
0.0
 40
0.133333
 41
1.204201
 71
     1
 72
     1
  1
{Crown # 3356\P}
  7
_TCW_TXTSTY_2
 73
     1
 44
1.0
1001
TCAD
1000
TCW40_TEXT
1002
{
1000
Times New Roman
1070
     0
1070
   257
1002
}
  0
LINE
  5
38
100
AcDbEntity
 67
     1
  8
0
370
    35
  6
Continuous
 62
    30
100
AcDbLine
 10
3.412678
 20
3.430566
 30
0.0
 11
7.794612
 21
7.66215
 31
0.0
1001
ACAD
1000
TCW40_DEV_WIDTH
1002
{
1040
0.01378
1002
}
  0
ARC
  5
39
100
AcDbEntity
 67
     1
  8
0
370
    35
  6
Continuous
 62
    30
100
AcDbCircle
 10
8.965857
 20
7.583824
 30
0.0
 40
0.101721
100
AcDbArc
 50
-84.374714
 51
-3.999993
1001
ACAD
1000
TCW40_DEV_WIDTH
1002
{
1040
0.01378
1002
}
  0
ARC
  5
3A
100
AcDbEntity
 67
     1
  8
0
370
    35
  6
Continuous
 62
    30
100
AcDbCircle
 10
8.987678
 20
7.207501
 30
0.0
 40
0.266936
100
AcDbArc
 50
133.726643
 51
168.092707
1001
ACAD
1000
TCW40_DEV_WIDTH
1002
{
1040
0.01378
1002
}
  0
ARC
  5
3B
100
AcDbEntity
 67
     1
  8
0
370
    35
  6
Continuous
 62
    30
100
AcDbCircle
 10
9.013316
 20
7.18139
 30
0.0
 40
0.303526
100
AcDbArc
 50
97.09461
 51
133.816905
1001
ACAD
1000
TCW40_DEV_WIDTH
1002
{
1040
0.01378
1002
}
  0
ARC
  5
3C
100
AcDbEntity
 67
     1
  8
0
370
    35
  6
Continuous
 62
    30
100
AcDbCircle
 10
8.636195
 20
7.275312
 30
0.0
 40
0.091185
100
AcDbArc
 50
-99.526492
 51
-8.027663
1001
ACAD
1000
TCW40_DEV_WIDTH
1002
{
1040
0.01378
1002
}
  0
LINE
  5
3D
100
AcDbEntity
 67
     1
  8
0
370
    35
  6
Continuous
 62
    30
100
AcDbLine
 10
8.621103
 20
7.185384
 30
0.0
 11
8.499398
 21
7.176874
 31
0.0
1001
ACAD
1000
TCW40_DEV_WIDTH
1002
{
1040
0.01378
1002
}
  0
ARC
  5
3E
100
AcDbEntity
 67
     1
  8
0
370
    35
  6
Continuous
 62
    30
100
AcDbCircle
 10
6.816502
 20
7.608541
 30
0.0
 40
1.737376
100
AcDbArc
 50
-22.280194
 51
-14.38636
1001
ACAD
1000
TCW40_DEV_WIDTH
1002
{
1040
0.01378
1002
}
  0
ARC
  5
3F
100
AcDbEntity
 67
     1
  8
0
370
    35
  6
Continuous
 62
    30
100
AcDbCircle
 10
8.017901
 20
7.152489
 30
0.0
 40
0.454003
100
AcDbArc
 50
-55.037712
 51
-26.510578
1001
ACAD
1000
TCW40_DEV_WIDTH
1002
{
1040
0.01378
1002
}
  0
ARC
  5
40
100
AcDbEntity
 67
     1
  8
0
370
    35
  6
Continuous
 62
    30
100
AcDbCircle
 10
8.067655
 20
7.13569
 30
0.0
 40
0.412902
100
AcDbArc
 50
-92.380366
 51
-59.364019
1001
ACAD
1000
TCW40_DEV_WIDTH
1002
{
1040
0.01378
1002
}
  0
ARC
  5
41
100
AcDbEntity
 67
     1
  8
0
370
    35
  6
Continuous
 62
    30
100
AcDbCircle
 10
7.970571
 20
9.570059
 30
0.0
 40
2.848036
100
AcDbArc
 50
-90.012599
 51
-88.391701
1001
ACAD
1000
TCW40_DEV_WIDTH
1002
{
1040
0.01378
1002
}
  0
ARC
  5
42
100
AcDbEntity
 67
     1
  8
0
370
    35
  6
Continuous
 62
    30
100
AcDbCircle
 10
-7.360708
 20
9.049186
 30
0.0
 40
15.506277
100
AcDbArc
 50
-9.163511
 51
-8.631493
1001
ACAD
1000
TCW40_DEV_WIDTH
1002
{
1040
0.01378
1002
}
  0
ARC
  5
43
100
AcDbEntity
 67
     1
  8
0
370
    35
  6
Continuous
 62
    30
100
AcDbCircle
 10
7.816823
 20
6.592626
 30
0.0
 40
0.131482
100
AcDbArc
 50
-81.390772
 51
-5.610002
1001
ACAD
1000
TCW40_DEV_WIDTH
1002
{
1040
0.01378
1002
}
  0
LINE
  5
44
100
AcDbEntity
 67
     1
  8
0
370
    35
  6
Continuous
 62
    30
100
AcDbLine
 10
7.836505
 20
6.462625
 30
0.0
 11
7.599737
 21
6.438878
 31
0.0
1001
ACAD
1000
TCW40_DEV_WIDTH
1002
{
1040
0.01378
1002
}
  0
ARC
  5
45
100
AcDbEntity
 67
     1
  8
0
370
    35
  6
Continuous
 62
    30
100
AcDbCircle
 10
7.870596
 20
4.311922
 30
0.0
 40
2.144132
100
AcDbArc
 50
97.257309
 51
101.858074
1001
ACAD
1000
TCW40_DEV_WIDTH
1002
{
1040
0.01378
1002
}
  0
ARC
  5
46
100
AcDbEntity
 67
     1
  8
0
370
    35
  6
Continuous
 62
    30
100
AcDbCircle
 10
7.67917
 20
4.881746
 30
0.0
 40
1.548727
100
AcDbArc
 50
99.258289
 51
155.505258
1001
ACAD
1000
TCW40_DEV_WIDTH
1002
{
1040
0.01378
1002
}
  0
ARC
  5
47
100
AcDbEntity
 67
     1
  8
0
370
    35
  6
Continuous
 62
    30
100
AcDbCircle
 10
9.195699
 20
3.985116
 30
0.0
 40
3.305822
100
AcDbArc
 50
152.259616
 51
158.679677
1001
ACAD
1000
TCW40_DEV_WIDTH
1002
{
1040
0.01378
1002
}
  0
ARC
  5
48
100
AcDbEntity
 67
     1
  8
0
370
    35
  6
Continuous
 62
    30
100
AcDbCircle
 10
15.4125
 20
1.165525
 30
0.0
 40
10.128937
100
AcDbArc
 50
156.607143
 51
157.423999
1001
ACAD
1000
TCW40_DEV_WIDTH
1002
{
1040
0.01378
1002
}
  0
ARC
  5
49
100
AcDbEntity
 67
     1
  8
0
370
    35
  6
Continuous
 62
    30
100
AcDbCircle
 10
5.933456
 20
5.11552
 30
0.0
 40
0.140416
100
AcDbArc
 50
-83.649816
 51
-25.933859
1001
ACAD
1000
TCW40_DEV_WIDTH
1002
{
1040
0.01378
1002
}
  0
ARC
  5
4A
100
AcDbEntity
 67
     1
  8
0
370
    35
  6
Continuous
 62
    30
100
AcDbCircle
 10
4.980221
 20
5.286347
 30
0.0
 40
0.78672
100
AcDbArc
 50
-35.107065
 51
-23.236488
1001
ACAD
1000
TCW40_DEV_WIDTH
1002
{
1040
0.01378
1002
}
  0
ARC
  5
4B
100
AcDbEntity
 67
     1
  8
0
370
    35
  6
Continuous
 62
    30
100
AcDbCircle
 10
5.181208
 20
5.141313
 30
0.0
 40
0.538896
100
AcDbArc
 50
-67.287509
 51
-34.78159
1001
ACAD
1000
TCW40_DEV_WIDTH
1002
{
1040
0.01378
1002
}
  0
ARC
  5
4C
100
AcDbEntity
 67
     1
  8
0
370
    35
  6
Continuous
 62
    30
100
AcDbCircle
 10
5.091391
 20
5.404472
 30
0.0
 40
0.816542
100
AcDbArc
 50
-91.518166
 51
-68.603694
1001
ACAD
1000
TCW40_DEV_WIDTH
1002
{
1040
0.01378
1002
}
  0
LINE
  5
4D
100
AcDbEntity
 67
     1
  8
0
370
    35
  6
Continuous
 62
    30
100
AcDbLine
 10
5.069758
 20
4.588216
 30
0.0
 11
5.082836
 21
4.463783
 31
0.0
1001
ACAD
1000
TCW40_DEV_WIDTH
1002
{
1040
0.01378
1002
}
  0
ARC
  5
4E
100
AcDbEntity
 67
     1
  8
0
370
    35
  6
Continuous
 62
    30
100
AcDbCircle
 10
4.794944
 20
4.46813
 30
0.0
 40
0.287926
100
AcDbArc
 50
-54.789756
 51
-0.865012
1001
ACAD
1000
TCW40_DEV_WIDTH
1002
{
1040
0.01378
1002
}
  0
ARC
  5
4F
100
AcDbEntity
 67
     1
  8
0
370
    35
  6
Continuous
 62
    30
100
AcDbCircle
 10
4.435998
 20
5.052856
 30
0.0
 40
0.97362
100
AcDbArc
 50
-66.897615
 51
-57.372131
1001
ACAD
1000
TCW40_DEV_WIDTH
1002
{
1040
0.01378
1002
}
  0
ARC
  5
50
100
AcDbEntity
 67
     1
  8
0
370
    35
  6
Continuous
 62
    30
100
AcDbCircle
 10
4.012195
 20
3.911126
 30
0.0
 40
0.842596
100
AcDbArc
 50
8.53928
 51
16.9885
1001
ACAD
1000
TCW40_DEV_WIDTH
1002
{
1040
0.01378
1002
}
  0
ARC
  5
51
100
AcDbEntity
 67
     1
  8
0
370
    35
  6
Continuous
 62
    30
100
AcDbCircle
 10
4.21144
 20
3.956201
 30
0.0
 40
0.639042
100
AcDbArc
 50
-10.251829
 51
7.195143
1001
ACAD
1000
TCW40_DEV_WIDTH
1002
{
1040
0.01378
1002
}
  0
ARC
  5
52
100
AcDbEntity
 67
     1
  8
0
370
    35
  6
Continuous
 62
    30
100
AcDbCircle
 10
4.402075
 20
3.939794
 30
0.0
 40
0.448883
100
AcDbArc
 50
-38.601707
 51
-12.522217
1001
ACAD
1000
TCW40_DEV_WIDTH
1002
{
1040
0.01378
1002
}
  0
ARC
  5
53
100
AcDbEntity
 67
     1
  8
0
370
    35
  6
Continuous
 62
    30
100
AcDbCircle
 10
3.631247
 20
4.666338
 30
0.0
 40
1.507085
100
AcDbArc
 50
-48.29461
 51
-41.906279
1001
ACAD
1000
TCW40_DEV_WIDTH
1002
{
1040
0.01378
1002
}
  0
ARC
  5
54
100
AcDbEntity
 67
     1
  8
0
370
    35
  6
Continuous
 62
    30
100
AcDbCircle
 10
4.03119
 20
4.498436
 30
0.0
 40
1.139902
100
AcDbArc
 50
-70.51484
 51
-63.081154
1001
ACAD
1000
TCW40_DEV_WIDTH
1002
{
1040
0.01378
1002
}
  0
ARC
  5
55
100
AcDbEntity
 67
     1
  8
0
370
    35
  6
Continuous
 62
    30
100
AcDbCircle
 10
4.362669
 20
3.845563
 30
0.0
 40
0.407699
100
AcDbArc
 50
-63.079666
 51
-48.29461
1001
ACAD
1000
TCW40_DEV_WIDTH
1002
{
1040
0.01378
1002
}
  0
LINE
  5
56
100
AcDbEntity
 67
     1
  8
0
370
    35
  6
Continuous
 62
    30
100
AcDbLine
 10
4.392959
 20
3.397705
 30
0.0
 11
4.392959
 21
3.169047
 31
0.0
1001
ACAD
1000
TCW40_DEV_WIDTH
1002
{
1040
0.01378
1002
}
  0
LINE
  5
57
100
AcDbEntity
 67
     1
  8
0
370
    35
  6
Continuous
 62
    30
100
AcDbLine
 10
4.324157
 20
3.100245
 30
0.0
 11
4.114938
 21
3.100245
 31
0.0
1001
ACAD
1000
TCW40_DEV_WIDTH
1002
{
1040
0.01378
1002
}
  0
ARC
  5
58
100
AcDbEntity
 67
     1
  8
0
370
    35
  6
Continuous
 62
    30
100
AcDbCircle
 10
4.324157
 20
3.169047
 30
0.0
 40
0.068802
100
AcDbArc
 50
-89.999994
 51
-0.000009
1001
ACAD
1000
TCW40_DEV_WIDTH
1002
{
1040
0.01378
1002
}
  0
ARC
  5
59
100
AcDbEntity
 67
     1
  8
0
370
    35
  6
Continuous
 62
    30
100
AcDbCircle
 10
2.026985
 20
3.382379
 30
0.0
 40
2.088982
100
AcDbArc
 50
-12.550741
 51
-8.256249
1001
ACAD
1000
TCW40_DEV_WIDTH
1002
{
1040
0.01378
1002
}
  0
ARC
  5
5A
100
AcDbEntity
 67
     1
  8
0
370
    35
  6
Continuous
 62
    30
100
AcDbCircle
 10
4.114938
 20
3.079407
 30
0.0
 40
0.020837
100
AcDbArc
 50
90.0
 51
171.743739
1001
ACAD
1000
TCW40_DEV_WIDTH
1002
{
1040
0.01378
1002
}
  0
ARC
  5
5B
100
AcDbEntity
 67
     1
  8
0
370
    35
  6
Continuous
 62
    30
100
AcDbCircle
 10
4.420658
 20
3.397705
 30
0.0
 40
0.027699
100
AcDbArc
 50
109.48516
 51
179.999986
1001
ACAD
1000
TCW40_DEV_WIDTH
1002
{
1040
0.01378
1002
}
  0
ARC
  5
5C
100
AcDbEntity
 67
     1
  8
0
370
    35
  6
Continuous
 62
    30
100
AcDbCircle
 10
2.526688
 20
3.261739
 30
0.0
 40
1.575031
100
AcDbArc
 50
-16.32877
 51
-12.217181
1001
ACAD
1000
TCW40_DEV_WIDTH
1002
{
1040
0.01378
1002
}
  0
ARC
  5
5D
100
AcDbEntity
 67
     1
  8
0
370
    35
  6
Continuous
 62
    30
100
AcDbCircle
 10
3.217025
 20
3.038814
 30
0.0
 40
0.850097
100
AcDbArc
 50
-34.399019
 51
-14.99102
1001
ACAD
1000
TCW40_DEV_WIDTH
1002
{
1040
0.01378
1002
}
  0
ARC
  5
5E
100
AcDbEntity
 67
     1
  8
0
370
    35
  6
Continuous
 62
    30
100
AcDbCircle
 10
3.33057
 20
3.020997
 30
0.0
 40
0.747979
100
AcDbArc
 50
-51.762951
 51
-38.18948
1001
ACAD
1000
TCW40_DEV_WIDTH
1002
{
1040
0.01378
1002
}
  0
ARC
  5
5F
100
AcDbEntity
 67
     1
  8
0
370
    35
  6
Continuous
 62
    30
100
AcDbCircle
 10
3.252014
 20
3.318636
 30
0.0
 40
1.04066
100
AcDbArc
 50
-81.1188
 51
-61.354651
1001
ACAD
1000
TCW40_DEV_WIDTH
1002
{
1040
0.01378
1002
}
  0
ARC
  5
60
100
AcDbEntity
 67
     1
  8
0
370
    35
  6
Continuous
 62
    30
100
AcDbCircle
 10
3.604483
 20
2.673379
 30
0.0
 40
0.305411
100
AcDbArc
 50
-61.354651
 51
-51.762951
1001
ACAD
1000
TCW40_DEV_WIDTH
1002
{
1040
0.01378
1002
}
  0
LINE
  5
61
100
AcDbEntity
 67
     1
  8
0
370
    35
  6
Continuous
 62
    30
100
AcDbLine
 10
3.412678
 20
2.290454
 30
0.0
 11
3.412678
 21
3.430566
 31
0.0
1001
ACAD
1000
TCW40_DEV_WIDTH
1002
{
1040
0.01378
1002
}
  0
LINE
  5
62
100
AcDbEntity
 67
     1
  8
0
370
    35
  6
Continuous
 62
    30
100
AcDbLine
 10
5.948987
 20
4.975965
 30
0.0
 11
5.703126
 21
4.975965
 31
0.0
1001
ACAD
1000
TCW40_DEV_WIDTH
1002
{
1040
0.01378
1002
}
  0
LINE
  5
63
100
AcDbEntity
 67
     1
  8
0
370
    35
  6
Continuous
 62
    30
100
AcDbLine
 10
9.06733
 20
7.576728
 30
0.0
 11
9.06733
 21
7.751147
 31
0.0
1001
ACAD
1000
TCW40_DEV_WIDTH
1002
{
1040
0.01378
1002
}
  0
LINE
  5
64
100
AcDbEntity
 67
     1
  8
0
370
    35
  6
Continuous
 62
    30
100
AcDbLine
 10
9.06733
 20
7.751147
 30
0.0
 11
7.794612
 21
7.66215
 31
0.0
1001
ACAD
1000
TCW40_DEV_WIDTH
1002
{
1040
0.01378
1002
}
  0
DIMENSION
  5
74
100
AcDbEntity
 67
     1
  8
0
  6
Continuous
 62
     7
100
AcDbDimension
  2
*D0
 10
2.582169
 20
2.290454
 30
0.0
 11
2.582169
 21
5.020801
 31
0.0
 71
     5
 72
     1
 41
1.0
 42
0.0
  3
STANDARD
100
AcDbAlignedDimension
 13
7.682541
 23
7.751147
 33
0.0
 14
3.039278
 24
2.290454
 34
0.0
 50
90.0
100
AcDbRotatedDimension
1001
ACAD
1000
DSTYLE
1002
{
1070
    41
1040
0.125
1070
   179
1070
     4
1070
   271
1070
     4
1070
   272
1070
     4
1002
}
  0
DIMENSION
  5
84
100
AcDbEntity
 67
     1
  8
0
  6
Continuous
 62
     7
100
AcDbDimension
  2
*D1
 10
9.06733
 20
8.624751
 30
0.0
 11
6.240004
 21
8.784474
 31
0.0
 71
     5
 72
     1
 41
1.0
 42
0.0
  3
STANDARD
100
AcDbAlignedDimension
 13
3.412678
 23
3.981487
 33
0.0
 14
9.06733
 24
7.951117
 34
0.0
100
AcDbRotatedDimension
1001
ACAD
1000
DSTYLE
1002
{
1070
    41
1040
0.125
1070
   179
1070
     4
1070
   271
1070
     4
1070
   272
1070
     4
1002
}
  0
DIMENSION
  5
93
100
AcDbEntity
 67
     1
  8
0
  6
Continuous
 62
     7
100
AcDbDimension
  2
*D2
 10
7.794612
 20
7.66215
 30
0.0
 11
8.858841
 21
8.143889
 31
0.0
 70
     2
 71
     5
 72
     1
 41
1.0
 42
0.0
  3
STANDARD
100
AcDb2LineAngularDimension
 13
7.128777
 23
7.751147
 33
0.0
 14
9.06733
 24
7.751147
 34
0.0
 15
3.412678
 25
3.430566
 35
0.0
 16
8.819484
 26
8.229908
 36
0.0
1001
ACAD
1000
DSTYLE
1002
{
1070
    41
1040
0.125
1070
     3
1000

1002
}
1001
TCAD
1000
TCW_DSTYLE
1002
{
1070
     0
1002
}
  0
DIMENSION
  5
A2
100
AcDbEntity
 67
     1
  8
0
  6
Continuous
 62
     7
100
AcDbDimension
  2
*D3
 10
3.412678
 20
3.430566
 30
0.0
 11
3.01486
 21
2.493365
 31
0.0
 70
     2
 71
     5
 72
     1
 41
1.0
 42
0.0
  3
STANDARD
100
AcDb2LineAngularDimension
 13
3.412678
 23
3.430566
 33
0.0
 14
3.412678
 24
2.290454
 34
0.0
 15
7.794612
 25
7.66215
 35
0.0
 16
3.125552
 26
2.453753
 36
0.0
1001
ACAD
1000
DSTYLE
1002
{
1070
    41
1040
0.125
1070
     3
1000

1002
}
1001
TCAD
1000
TCW_DSTYLE
1002
{
1070
     0
1002
}
  0
LINE
  5
A3
100
AcDbEntity
 67
     1
  8
0
370
     0
  6
Continuous
 62
     7
100
AcDbLine
 10
9.06733
 20
7.751147
 30
0.0
 11
7.801977
 21
7.751147
 31
0.0
  0
TEXT
  5
A4
100
AcDbEntity
 67
     1
  8
0
  6
Continuous
 62
     7
100
AcDbText
 10
4.371603
 20
1.704437
 30
0.0
 40
0.1
  1
1  X 7-7/8
  7
_TCW_TXTSTY_1
 11
4.371603
 21
1.804437
 31
0.0
100
AcDbText
 73
     3
1001
TCAD
1000
TCW_REFPOINT
1002
{
1010
4.371603
1020
1.837769
1030
0.0
1002
}
1001
TCAD
1000
TCW40_TEXT
1002
{
1000
Times New Roman
1070
     0
1070
   257
1002
}
  0
MTEXT
  5
A6
100
AcDbEntity
 67
     1
  8
0
  6
Continuous
 62
     7
100
AcDbMText
 10
4.386697
 20
1.630613
 30
0.0
 40
0.0875
 41
1.350353
 71
     1
 72
     1
  1
{Saroyan Lumber Co.\P(800) 624-9309}
  7
_TCW_TXTSTY_3
 73
     1
 44
1.0
1001
TCAD
1000
TCW_REFPOINT
1002
{
1010
4.386697
1020
1.520796
1030
0.0
1002
}
1001
TCAD
1000
TCW40_TEXT
1002
{
1000
Times New Roman
1070
     0
1070
   257
1002
}
  0
ENDSEC
  0
SECTION
  2
OBJECTS
  0
DICTIONARY
  5
19
100
AcDbDictionary
280
     0
281
     1
  3
ACAD_GROUP
350
1A
  3
ACAD_MLINESTYLE
350
1B
  3
ACAD_LAYOUT
350
1E
  3
ACAD_PLOTSETTINGS
350
22
  3
ACAD_PLOTSTYLENAME
350
1F
  0
DICTIONARY
  5
1A
102
{ACAD_REACTORS
330
19
102
}
100
AcDbDictionary
280
     0
281
     1
  0
DICTIONARY
  5
1B
102
{ACAD_REACTORS
330
19
102
}
100
AcDbDictionary
280
     0
281
     1
  3
Standard
350
1C
  0
MLINESTYLE
  5
1C
100
AcDbMlineStyle
  2
STANDARD
 70
     0
  3

 62
   256
 51
90.0
 52
90.0
 71
     3
 49
0.25
 62
     7
  6
ByLayer
 49
0.0
 62
     7
  6
ByLayer
 49
-0.25
 62
     7
  6
ByLayer
  0
ACDBDICTIONARYWDFLT
  5
1F
102
{ACAD_REACTORS
330
19
102
}
100
AcDbDictionary
281
     1
  3
Normal
350
1D
100
AcDbDictionaryWithDefault
340
1D
  0
ACDBPLACEHOLDER
  5
1D
102
{ACAD_REACTORS
330
1F
102
}
  0
LAYOUT
  5
21
102
{ACAD_REACTORS
330
1E
102
}
100
AcDbPlotSettings
  1

  2

  4

  6

 40
0.0
 41
0.0
 42
0.0
 43
0.0
 44
0.0
 45
0.0
 46
0.0
 47
0.0
 48
0.0
 49
0.0
140
0.0
141
0.0
142
1.0
143
1.0
 70
     0
 72
     0
 73
     0
 74
     0
  7

 75
     0
147
1.0
148
0.0
149
0.0
100
AcDbLayout
  1
Layout1
 70
     0
 71
     0
 10
0.0
 20
0.0
 11
0.0
 21
0.0
 12
0.0
 22
0.0
 32
0.0
 14
0.0
 24
0.0
 34
0.0
 15
0.0
 25
0.0
 35
0.0
146
0.0
 13
0.0
 23
0.0
 33
0.0
 16
0.0
 26
0.0
 36
0.0
 17
0.0
 27
0.0
 37
0.0
 76
     0
330
B
331
0
345
0
346
0
  0
DICTIONARY
  5
1E
102
{ACAD_REACTORS
330
19
102
}
100
AcDbDictionary
280
     0
281
     1
  3
Model
350
34
  3
Paper 1
350
A7
  0
DICTIONARY
  5
22
102
{ACAD_REACTORS
330
19
102
}
100
AcDbDictionary
280
     0
281
     1
  0
LAYOUT
  5
34
100
AcDbPlotSettings
  1

  2

  4

  6

 40
0.0
 41
0.0
 42
0.0
 43
0.0
 44
0.0
 45
0.0
 46
0.0
 47
0.0
 48
0.0
 49
0.0
140
0.0
141
0.0
142
1.0
143
1.0
 70
     0
 72
     0
 73
     0
 74
     0
  7

 75
     0
147
1.0
148
0.0
149
0.0
100
AcDbLayout
  1
Model
 70
     0
 71
     0
 10
0.0
 20
0.0
 11
0.0
 21
0.0
 12
0.0
 22
0.0
 32
0.0
 14
0.0
 24
0.0
 34
0.0
 15
0.0
 25
0.0
 35
0.0
146
0.0
 13
0.0
 23
0.0
 33
0.0
 16
0.0
 26
0.0
 36
0.0
 17
0.0
 27
0.0
 37
0.0
 76
     0
330
A
331
0
345
0
346
0
  0
LAYOUT
  5
A7
100
AcDbPlotSettings
  1

  2

  4

  6

 40
0.0
 41
0.0
 42
0.0
 43
0.0
 44
215.9
 45
279.4
 46
-31.75
 47
31.75
 48
0.0
 49
0.0
140
0.0
141
0.0
142
1.0
143
1.0
 70
     0
 72
     0
 73
     0
 74
     0
  7

 75
     0
147
1.0
148
0.0
149
0.0
100
AcDbLayout
  1
Paper 1
 70
     1
 71
     1
 10
31.75
 20
-31.75
 11
247.65
 21
247.65
 12
0.0
 22
0.0
 32
0.0
 14
0.0
 24
0.0
 34
0.0
 15
0.0
 25
0.0
 35
0.0
146
0.0
 13
0.0
 23
0.0
 33
0.0
 16
0.0
 26
0.0
 36
0.0
 17
0.0
 27
0.0
 37
0.0
 76
     0
330
B
331
35
345
0
346
0
  0
ENDSEC
  0
EOF
