  0
SECTION
  2
HEADER
  9
$ACADVER
  1
AC1014
  9
$ACADMAINTVER
 70
  0
  9
$DWGCODEPAGE
  3
ANSI_1252
  9
$INSBASE
 10
0.0
 20
0.0
 30
0.0
  9
$EXTMIN
 10
1.108
 20
-6.62
 30
0.0
  9
$EXTMAX
 10
15.108
 20
5.38
 30
0.0
  9
$LIMMIN
 10
1.108
 20
-6.62
  9
$LIMMAX
 10
15.108
 20
5.38
  9
$ORTHOMODE
 70
  0
  9
$REGENMODE
 70
  1
  9
$FILLMODE
 70
  1
  9
$QTEXTMODE
 70
  0
  9
$MIRRTEXT
 70
  1
  9
$DRAGMODE
 70
  0
  9
$LTSCALE
 40
1.0
  9
$OSMODE
 70
  0
  9
$ATTMODE
 70
  1
  9
$TEXTSIZE
 40
0.5
  9
$TRACEWID
 40
1.0
  9
$TEXTSTYLE
  7
STANDARD
  9
$CLAYER
  8
0
  9
$CELTYPE
  6
CONTINUOUS
  9
$CECOLOR
 62
 30
  9
$CELTSCALE
 40
1.0
  9
$DELOBJ
 70
  1
  9
$DISPSILH
 70
  0
  9
$DIMSCALE
 40
1.0
  9
$DIMASZ
 40
0.125
  9
$DIMEXO
 40
0.063
  9
$DIMDLI
 40
0.375
  9
$DIMRND
 40
0.0
  9
$DIMDLE
 40
0.0
  9
$DIMEXE
 40
0.125
  9
$DIMTP
 40
0.0
  9
$DIMTM
 40
0.0
  9
$DIMTXT
 40
0.117
  9
$DIMCEN
 40
0.09
  9
$DIMTSZ
 40
0.0
  9
$DIMTOL
 70
  0
  9
$DIMLIM
 70
  0
  9
$DIMTIH
 70
  1
  9
$DIMTOH
 70
  1
  9
$DIMSE1
 70
  0
  9
$DIMSE2
 70
  0
  9
$DIMTAD
 70
  1
  9
$DIMZIN
 70
  0
  9
$DIMBLK
  1

  9
$DIMASO
 70
  0
  9
$DIMSHO
 70
  1
  9
$DIMPOST
  1
<>in
  9
$DIMAPOST
  1
<>
  9
$DIMALT
 70
  0
  9
$DIMALTD
 70
  2
  9
$DIMALTF
 40
1.0
  9
$DIMLFAC
 40
1.0
  9
$DIMTOFL
 70
  1
  9
$DIMTVP
 40
0.0
  9
$DIMTIX
 70
  1
  9
$DIMSOXD
 70
  0
  9
$DIMSAH
 70
  0
  9
$DIMBLK1
  1

  9
$DIMBLK2
  1

  9
$DIMSTYLE
  2
STANDARD
  9
$DIMCLRD
 70
  7
  9
$DIMCLRE
 70
  7
  9
$DIMCLRT
 70
  7
  9
$DIMTFAC
 40
1.0
  9
$DIMGAP
 40
0.063
  9
$DIMJUST
 70
  0
  9
$DIMSD1
 70
  0
  9
$DIMSD2
 70
  0
  9
$DIMTOLJ
 70
  1
  9
$DIMTZIN
 70
  0
  9
$DIMALTZ
 70
  0
  9
$DIMALTTZ
 70
  0
  9
$DIMFIT
 70
  0
  9
$DIMUPT
 70
  0
  9
$DIMUNIT
 70
  5
  9
$DIMDEC
 70
  4
  9
$DIMTDEC
 70
  4
  9
$DIMALTU
 70
  2
  9
$DIMALTTD
 70
  2
  9
$DIMTXSTY
  7
STANDARD
  9
$DIMAUNIT
 70
  0
  9
$LUNITS
 70
  2
  9
$LUPREC
 70
  2
  9
$SKETCHINC
 40
1.0
  9
$FILLETRAD
 40
1.0
  9
$AUNITS
 70
  0
  9
$AUPREC
 70
  2
  9
$MENU
  1
acad
  9
$ELEVATION
 40
0.0
  9
$PELEVATION
 40
0.0
  9
$THICKNESS
 40
0.0
  9
$LIMCHECK
 70
  0
  9
$BLIPMODE
 70
  1
  9
$CHAMFERA
 40
0.0
  9
$CHAMFERB
 40
0.0
  9
$CHAMFERC
 40
0.0
  9
$CHAMFERD
 40
0.0
  9
$SKPOLY
 70
  0
  9
$TDCREATE
 40
0.000000000
  9
$TDUPDATE
 40
0.000000000
  9
$TDINDWG
 40
0.0000000000
  9
$TDUSRTIMER
 40
0.0000000000
  9
$USRTIMER
 70
  1
  9
$ANGBASE
 50
0.0
  9
$ANGDIR
 70
  0
  9
$PDMODE
 70
  0
  9
$PDSIZE
 40
0.0
  9
$PLINEWID
 40
0.0
  9
$COORDS
 70
  0
  9
$SPLFRAME
 70
  0
  9
$SPLINETYPE
 70
  6
  9
$SPLINESEGS
 70
 20
  9
$ATTDIA
 70
  0
  9
$ATTREQ
 70
  1
  9
$HANDLING
 70
  1
  9
$HANDSEED
  5
56
  9
$SURFTAB1
 70
  6
  9
$SURFTAB2
 70
  6
  9
$SURFTYPE
 70
  6
  9
$SURFU
 70
  6
  9
$SURFV
 70
  6
  9
$UCSNAME
  2

  9
$UCSORG
 10
0.0
 20
0.0
 30
0.0
  9
$UCSXDIR
 10
1.0
 20
0.0
 30
0.0
  9
$UCSYDIR
 10
0.0
 20
1.0
 30
0.0
  9
$PUCSNAME
  2

  9
$PUCSORG
 10
0.0
 20
0.0
 30
0.0
  9
$PUCSXDIR
 10
1.0
 20
0.0
 30
0.0
  9
$PUCSYDIR
 10
0.0
 20
1.0
 30
0.0
  9
$USERI1
 70
  0
  9
$USERI2
 70
  0
  9
$USERI3
 70
  0
  9
$USERI4
 70
  0
  9
$USERI5
 70
  0
  9
$USERR1
 40
0.0
  9
$USERR2
 40
0.0
  9
$USERR3
 40
0.0
  9
$USERR4
 40
0.0
  9
$USERR5
 40
0.0
  9
$WORLDVIEW
 70
  1
  9
$SHADEDGE
 70
  3
  9
$SHADEDIF
 70
 70
  9
$TILEMODE
 70
  0
  9
$MAXACTVP
 70
 16
  9
$PINSBASE
 10
0.0
 20
0.0
 30
0.0
  9
$PLIMCHECK
 70
  0
  9
$PEXTMIN
 10
1.25
 20
-1.25
 30
0.0
  9
$PEXTMAX
 10
9.75
 20
9.75
 30
0.0
  9
$PLIMMIN
 10
1.25
 20
-1.25
  9
$PLIMMAX
 10
9.75
 20
9.75
  9
$UNITMODE
 70
  0
  9
$VISRETAIN
 70
  0
  9
$PLINEGEN
 70
  1
  9
$PSLTSCALE
 70
  1
  9
$TREEDEPTH
 70
3020
  9
$PICKSTYLE
 70
  1
  9
$CMLSTYLE
  2
STANDARD
  9
$CMLJUST
 70
  0
  9
$CMLSCALE
 40
1.0
  9
$PROXYGRAPHICS
 70
  0
  9
$MEASUREMENT
 70
  0
  0
ENDSEC
  0
SECTION
  2
CLASSES
  0
CLASS
  1
LWPOLYLINE
  2
AcDbPolyline
  3
"AutoCAD"
 90
        0
280
  0
281
  1
  0
CLASS
  1
IMAGE
  2
AcDbRasterImage
  3
ISM
 90
      127
280
  0
281
  1
  0
CLASS
  1
OLE2FRAME
  2
AcDbOle2Frame
  3
""
 90
        0
280
  0
281
  1
  0
CLASS
  1
HATCH
  2
AcDbHatch
  3
"ACAD_SEDONA"
 90
        0
280
  0
281
  1
  0
CLASS
  1
DICTIONARYVAR
  2
AcDbDictionaryVar
  3
"AutoCAD"
 90
        0
280
  0
281
  0
  0
CLASS
  1
RASTERVARIABLES
  2
AcDbRasterVariables
  3
ISM
 90
        0
280
  0
281
  0
  0
CLASS
  1
IMAGEDEF
  2
AcDbRasterImageDef
  3
ISM
 90
        0
280
  0
281
  0
  0
CLASS
  1
IMAGEDEF_REACTOR
  2
AcDbRasterImageDefReactor
  3
ISM
 90
        1
280
  0
281
  0
  0
CLASS
  1
IDBUFFER
  2
AcDbIdBuffer
  3
"Acad"
 90
        0
280
  0
281
  0
  0
CLASS
  1
SPATIAL_FILTER
  2
AcDbSpatialFilter
  3
"Acad"
 90
        0
280
  0
281
  0
  0
CLASS
  1
XRECORD
  2
AcDbXrecord
  3
"<Built In>"
 90
        0
280
  0
281
  0
  0
CLASS
  1
SORTENTSTABLE
  2
AcDbSortentsTable
  3
"AutoCAD"
 90
        0
280
  0
281
  0
  0
CLASS
  1
LAYER_INDEX
  2
AcDbLayerIndex
  3
"Acad"
 90
        0
280
  0
281
  0
  0
CLASS
  1
SPATIAL_INDEX
  2
AcDbSpatialIndex
  3
"Acad"
 90
        0
280
  0
281
  0
  0
CLASS
  1
OBJECT_PTR
  2
CAseDLPNTableRecord
  3
"ASE-LPNTableRecord"
 90
        1
280
  0
281
  0
  0
CLASS
  1
LAYOUT
  2
AcDbLayout
  3
"AutoCAD 2000"
 90
        1
280
  0
281
  0
  0
CLASS
  1
PLOTSETTINGS
  2
AcDbPlotSettings
  3
"AutoCAD 2000"
 90
        1
280
  0
281
  0
  0
CLASS
  1
ACDBDICTIONARYWDFLT
  2
AcDbDictionaryWithDefault
  3
"AutoCAD 2000"
 90
        1
280
  0
281
  0
  0
CLASS
  1
ACDBPLACEHOLDER
  2
AcDbPlaceHolder
  3
"AutoCAD 2000"
 90
        1
280
  0
281
  0
  0
ENDSEC
  0
SECTION
  2
TABLES
  0
TABLE
  2
VPORT
  5
7
100
AcDbSymbolTable
 70
  1
  0
VPORT
  5
15
100
AcDbSymbolTableRecord
100
AcDbViewportTableRecord
  2
*ACTIVE
 70
  0
 10
0.0
 20
0.0
 11
1.0
 21
1.0
 12
6.25
 22
2.75
 13
0.0
 23
0.0
 14
0.5
 24
0.5
 15
0.5
 25
0.5
 16
0.0
 26
0.0
 36
1.0
 17
0.0
 27
0.0
 37
0.0
 40
17.615
 41
1.71
 42
50.0
 43
0.0
 44
0.0
 50
0.0
 51
0.0
 71
  0
 72
100
 73
  1
 74
  1
 75
  0
 76
  0
 77
  0
 78
  0
  0
ENDTAB
  0
TABLE
  2
LTYPE
  5
4
100
AcDbSymbolTable
 70
 15
  0
LTYPE
  5
11
100
AcDbSymbolTableRecord
100
AcDbLinetypeTableRecord
  2
BYBLOCK
 70
 64
  3

 72
 65
 73
  0
 40
0.0
  0
LTYPE
  5
12
100
AcDbSymbolTableRecord
100
AcDbLinetypeTableRecord
  2
BYLAYER
 70
 64
  3

 72
 65
 73
  0
 40
0.0
  0
LTYPE
  5
13
100
AcDbSymbolTableRecord
100
AcDbLinetypeTableRecord
  2
CONTINUOUS
 70
 64
  3
Solid line
 72
 65
 73
  0
 40
0.0
  0
LTYPE
  5
1E
100
AcDbSymbolTableRecord
100
AcDbLinetypeTableRecord
  2
BORDER
 70
  0
  3
BORDER
 72
 65
 73
  6
 40
1.75
 49
0.5
 74
  0
 49
-0.25
 74
  0
 49
0.5
 74
  0
 49
-0.25
 74
  0
 49
0.0
 74
  0
 49
-0.25
 74
  0
  0
LTYPE
  5
1F
100
AcDbSymbolTableRecord
100
AcDbLinetypeTableRecord
  2
CENTER
 70
  0
  3
CENTER
 72
 65
 73
  4
 40
2.0
 49
1.25
 74
  0
 49
-0.25
 74
  0
 49
0.25
 74
  0
 49
-0.25
 74
  0
  0
LTYPE
  5
20
100
AcDbSymbolTableRecord
100
AcDbLinetypeTableRecord
  2
DASHDOT
 70
  0
  3
DASHDOT
 72
 65
 73
  4
 40
1.0
 49
0.5
 74
  0
 49
-0.25
 74
  0
 49
0.0
 74
  0
 49
-0.25
 74
  0
  0
LTYPE
  5
21
100
AcDbSymbolTableRecord
100
AcDbLinetypeTableRecord
  2
DASHED
 70
  0
  3
DASHED
 72
 65
 73
  2
 40
0.75
 49
0.5
 74
  0
 49
-0.25
 74
  0
  0
LTYPE
  5
22
100
AcDbSymbolTableRecord
100
AcDbLinetypeTableRecord
  2
DIVIDE
 70
  0
  3
DIVIDE
 72
 65
 73
  6
 40
1.25
 49
0.5
 74
  0
 49
-0.25
 74
  0
 49
0.0
 74
  0
 49
-0.25
 74
  0
 49
0.0
 74
  0
 49
-0.25
 74
  0
  0
LTYPE
  5
23
100
AcDbSymbolTableRecord
100
AcDbLinetypeTableRecord
  2
DOT
 70
  0
  3
DOT
 72
 65
 73
  2
 40
0.25
 49
0.0
 74
  0
 49
-0.25
 74
  0
  0
LTYPE
  5
24
100
AcDbSymbolTableRecord
100
AcDbLinetypeTableRecord
  2
HIDDEN
 70
  0
  3
HIDDEN
 72
 65
 73
  2
 40
0.375
 49
0.25
 74
  0
 49
-0.125
 74
  0
  0
LTYPE
  5
25
100
AcDbSymbolTableRecord
100
AcDbLinetypeTableRecord
  2
PHANTOM
 70
  0
  3
PHANTOM
 72
 65
 73
  6
 40
2.5
 49
1.25
 74
  0
 49
-0.25
 74
  0
 49
0.25
 74
  0
 49
-0.25
 74
  0
 49
0.25
 74
  0
 49
-0.25
 74
  0
  0
LTYPE
  5
26
100
AcDbSymbolTableRecord
100
AcDbLinetypeTableRecord
  2
$INVISIBLE
 70
  0
  3
$INVISIBLE
 72
 65
 73
  2
 40
200.0
 49
-100.0
 74
  0
 49
-100.0
 74
  0
  0
LTYPE
  5
27
100
AcDbSymbolTableRecord
100
AcDbLinetypeTableRecord
  2
$SNAPEXT
 70
  0
  3
$SNAPEXT
 72
 65
 73
  2
 40
0.04
 49
0.02
 74
  0
 49
-0.02
 74
  0
  0
LTYPE
  5
28
100
AcDbSymbolTableRecord
100
AcDbLinetypeTableRecord
  2
$CONSTRUCTION
 70
  0
  3
$CONSTRUCTION
 72
 65
 73
  4
 40
0.3
 49
0.2
 74
  0
 49
-0.05
 74
  0
 49
0.0
 74
  0
 49
-0.05
 74
  0
  0
LTYPE
  5
29
100
AcDbSymbolTableRecord
100
AcDbLinetypeTableRecord
  2
$AUXILIARY
 70
  0
  3
$AUXILIARY
 72
 65
 73
  2
 40
0.1
 49
0.05
 74
  0
 49
-0.05
 74
  0
  0
ENDTAB
  0
TABLE
  2
LAYER
  5
2
100
AcDbSymbolTable
 70
  5
  0
LAYER
  5
14
100
AcDbSymbolTableRecord
100
AcDbLayerTableRecord
  2
0
 70
  0
 62
  7
  6
CONTINUOUS
1001
TCAD
1000
TCW_LAYER_ORDER
1002
{
1071
        0
1002
}
  0
LAYER
  5
2A
100
AcDbSymbolTableRecord
100
AcDbLayerTableRecord
  2
$CONSTRUCTION
 70
  0
 62
  9
  6
$CONSTRUCTION
1001
TCAD
1000
TCW_LAYER_ORDER
1002
{
1071
        0
1002
}
  0
LAYER
  5
2B
100
AcDbSymbolTableRecord
100
AcDbLayerTableRecord
  2
LAYER_1
 70
  0
 62
  7
  6
CONTINUOUS
1001
TCAD
1000
TCW_LAYER_ORDER
1002
{
1071
        0
1002
}
  0
LAYER
  5
2C
100
AcDbSymbolTableRecord
100
AcDbLayerTableRecord
  2
LAYER_2
 70
  0
 62
  7
  6
CONTINUOUS
1001
TCAD
1000
TCW_LAYER_ORDER
1002
{
1071
        0
1002
}
  0
LAYER
  5
2D
100
AcDbSymbolTableRecord
100
AcDbLayerTableRecord
  2
7
 70
  0
 62
  7
  6
CONTINUOUS
1001
TCAD
1000
TCW_LAYER_ORDER
1002
{
1071
        0
1002
}
  0
ENDTAB
  0
TABLE
  2
STYLE
  5
3
100
AcDbSymbolTable
 70
  3
  0
STYLE
  5
17
100
AcDbSymbolTableRecord
100
AcDbTextStyleTableRecord
  2
STANDARD
 70
  0
 40
0.0
 41
1.0
 50
0.0
 71
  0
 42
0.15
  3
ARIAL.TTF
  4

1001
ACAD
1000
Arial
1071
       34
  0
STYLE
  5
2F
100
AcDbSymbolTableRecord
100
AcDbTextStyleTableRecord
  2
_TCW_TXTSTY_1
 70
  0
 40
0.0
 41
1.0
 50
0.0
 71
  0
 42
0.6
  3
TIMES.TTF
  4

1001
ACAD
1000
Times New Roman
1071
      290
  0
STYLE
  5
32
100
AcDbSymbolTableRecord
100
AcDbTextStyleTableRecord
  2
_TCW_TXTSTY_2
 70
  0
 40
0.0
 41
1.22
 50
0.0
 71
  0
 42
0.087
  3
TIMES.TTF
  4

1001
ACAD
1000
Times New Roman
1071
      290
  0
ENDTAB
  0
TABLE
  2
VIEW
  5
5
100
AcDbSymbolTable
 70
  1
  0
VIEW
  5
2E
100
AcDbSymbolTableRecord
100
AcDbViewTableRecord
  2
VIEW_0
 70
  0
 40
8.268
 10
5.846
 20
4.134
 41
11.693
 11
0.0
 21
0.0
 31
1.0
 12
0.0
 22
0.0
 32
1.0
 42
50.0
 43
0.0
 44
0.0
 50
0.0
 71
  0
  0
ENDTAB
  0
TABLE
  2
UCS
  5
6
100
AcDbSymbolTable
 70
  0
  0
ENDTAB
  0
TABLE
  2
APPID
  5
8
100
AcDbSymbolTable
 70
  2
  0
APPID
  5
16
100
AcDbSymbolTableRecord
100
AcDbRegAppTableRecord
  2
ACAD
 70
  0
  0
APPID
  5
1D
100
AcDbSymbolTableRecord
100
AcDbRegAppTableRecord
  2
TCAD
 70
  0
  0
ENDTAB
  0
TABLE
  2
DIMSTYLE
  5
9
100
AcDbSymbolTable
 70
  1
  0
DIMSTYLE
105
18
100
AcDbSymbolTableRecord
100
AcDbDimStyleTableRecord
  2
STANDARD
 70
  0
  3
<>in
  4
<>
  5

  6

  7

 40
1.0
 41
0.125
 42
0.063
 43
0.375
 44
0.125
 45
0.0
 46
0.0
 47
0.0
 48
0.0
 71
  0
 72
  0
 73
  1
 74
  1
 75
  0
 76
  0
 77
  1
 78
  0
140
0.117
141
0.09
142
0.0
143
1.0
144
1.0
145
0.0
146
1.0
147
0.063
170
  0
171
  2
172
  1
173
  0
174
  1
175
  0
176
  7
177
  7
178
  7
270
  5
271
  4
272
  4
273
  2
274
  2
275
  0
280
  0
281
  0
282
  0
283
  1
284
  0
285
  0
286
  0
287
  0
288
  0
340
2F
  0
ENDTAB
  0
TABLE
  2
BLOCK_RECORD
  5
1
100
AcDbSymbolTable
 70
  2
  0
BLOCK_RECORD
  5
A
100
AcDbSymbolTableRecord
100
AcDbBlockTableRecord
  2
*MODEL_SPACE
  0
BLOCK_RECORD
  5
B
100
AcDbSymbolTableRecord
100
AcDbBlockTableRecord
  2
*PAPER_SPACE
  0
BLOCK_RECORD
  5
35
100
AcDbSymbolTableRecord
100
AcDbBlockTableRecord
  2
*D0
  0
BLOCK_RECORD
  5
45
100
AcDbSymbolTableRecord
100
AcDbBlockTableRecord
  2
*D1
  0
ENDTAB
  0
ENDSEC
  0
SECTION
  2
BLOCKS
  0
BLOCK
  5
D
100
AcDbEntity
  8
0
100
AcDbBlockBegin
  2
*MODEL_SPACE
 70
  0
 10
0.0
 20
0.0
 30
0.0
  3
*MODEL_SPACE
  1

  0
ENDBLK
  5
E
100
AcDbEntity
  8
0
100
AcDbBlockEnd
  0
BLOCK
  5
F
100
AcDbEntity
 67
  1
  8
0
100
AcDbBlockBegin
  2
*PAPER_SPACE
 70
  0
 10
0.0
 20
0.0
 30
0.0
  3
*PAPER_SPACE
  1

  0
ENDBLK
  5
10
100
AcDbEntity
 67
  1
  8
0
100
AcDbBlockEnd
  0
BLOCK
  5
36
100
AcDbEntity
  8
0
100
AcDbBlockBegin
  2
*D0
 70
  1
 10
0.0
 20
0.0
 30
0.0
  3
*D0
  1

  0
LINE
  5
37
100
AcDbEntity
  8
0
  6
CONTINUOUS
 62
  7
100
AcDbLine
 10
4.02
 20
3.135
 30
0.0
 11
2.677
 21
3.135
 31
0.0
  0
LINE
  5
38
100
AcDbEntity
  8
0
  6
CONTINUOUS
 62
  7
100
AcDbLine
 10
7.289
 20
6.404
 30
0.0
 11
2.677
 21
6.404
 31
0.0
  0
LWPOLYLINE
  5
39
100
AcDbEntity
  8
0
  6
CONTINUOUS
 62
  7
100
AcDbPolyline
 90
        4
 70
  0
 10
2.802
 20
3.26
 10
2.802
 20
3.26
 10
2.802
 20
3.26
 10
2.802
 20
4.653
  0
LWPOLYLINE
  5
3A
100
AcDbEntity
  8
0
  6
CONTINUOUS
 62
  7
100
AcDbPolyline
 90
        4
 70
  0
 10
2.802
 20
6.279
 10
2.802
 20
6.279
 10
2.802
 20
6.279
 10
2.802
 20
4.886
  0
LWPOLYLINE
  5
3D
100
AcDbEntity
  8
0
  6
CONTINUOUS
 62
  7
100
AcDbPolyline
 90
        4
 70
  0
 10
2.802
 20
3.135
 40
0.0
 41
0.0
 10
2.818
 20
3.26
 40
0.0
 41
0.0
 10
2.785
 20
3.26
 40
0.0
 41
0.0
 10
2.802
 20
3.135
 40
0.0
 41
0.0
  0
HATCH
  5
3B
100
AcDbEntity
  8
0
  6
CONTINUOUS
 62
  7
100
AcDbHatch
 10
0.0
 20
0.0
 30
0.0
210
0.0
220
0.0
230
1.0
  2
SOLID
 70
  1
 71
  1
 91
        1
 92
        3
 72
  0
 73
  1
 93
        3
 10
2.8017106859789509
 20
3.134649989262595
 10
2.8179606859789508
 20
3.259649989262595
 10
2.785460685978951
 20
3.259649989262595
 97
        1
330
3C
 75
  0
 76
  0
 98
        0
  0
LWPOLYLINE
  5
40
100
AcDbEntity
  8
0
  6
CONTINUOUS
 62
  7
100
AcDbPolyline
 90
        4
 70
  0
 10
2.802
 20
6.404
 40
0.0
 41
0.0
 10
2.785
 20
6.279
 40
0.0
 41
0.0
 10
2.818
 20
6.279
 40
0.0
 41
0.0
 10
2.802
 20
6.404
 40
0.0
 41
0.0
  0
HATCH
  5
3E
100
AcDbEntity
  8
0
  6
CONTINUOUS
 62
  7
100
AcDbHatch
 10
0.0
 20
0.0
 30
0.0
210
0.0
220
0.0
230
1.0
  2
SOLID
 70
  1
 71
  1
 91
        1
 92
        3
 72
  0
 73
  1
 93
        3
 10
2.8017106859789509
 20
6.404326098489614
 10
2.785460685978951
 20
6.279326098489614
 10
2.8179606859789508
 20
6.279326098489614
 97
        1
330
3F
 75
  0
 76
  0
 98
        0
  0
TEXT
  5
41
100
AcDbEntity
  8
0
  6
CONTINUOUS
 62
  7
100
AcDbText
 10
2.555
 20
4.711
 30
0.0
 40
0.117
  1
3 1/4
  7
_TCW_TXTSTY_1
 72
  1
 11
2.733
 21
4.769
 31
0.0
100
AcDbText
 73
  2
  0
TEXT
  5
42
100
AcDbEntity
  8
0
  6
CONTINUOUS
 62
  7
100
AcDbText
 10
2.911
 20
4.711
 30
0.0
 40
0.117
  1
in
  7
_TCW_TXTSTY_1
 11
2.911
 21
4.828
 31
0.0
100
AcDbText
 73
  3
  0
ENDBLK
  5
43
100
AcDbEntity
  8
0
100
AcDbBlockEnd
  0
BLOCK
  5
46
100
AcDbEntity
  8
0
100
AcDbBlockBegin
  2
*D1
 70
  1
 10
0.0
 20
0.0
 30
0.0
  3
*D1
  1

  0
LINE
  5
47
100
AcDbEntity
  8
0
  6
CONTINUOUS
 62
  7
100
AcDbLine
 10
4.082
 20
3.197
 30
0.0
 11
4.082
 21
8.088
 31
0.0
  0
LINE
  5
48
100
AcDbEntity
  8
0
  6
CONTINUOUS
 62
  7
100
AcDbLine
 10
7.352
 20
6.467
 30
0.0
 11
7.352
 21
8.088
 31
0.0
  0
LWPOLYLINE
  5
49
100
AcDbEntity
  8
0
  6
CONTINUOUS
 62
  7
100
AcDbPolyline
 90
        4
 70
  0
 10
4.207
 20
7.963
 10
4.207
 20
7.963
 10
4.207
 20
7.963
 10
5.717
 20
7.963
  0
LWPOLYLINE
  5
4A
100
AcDbEntity
  8
0
  6
CONTINUOUS
 62
  7
100
AcDbPolyline
 90
        4
 70
  0
 10
7.227
 20
7.963
 10
7.227
 20
7.963
 10
7.227
 20
7.963
 10
5.717
 20
7.963
  0
LWPOLYLINE
  5
4D
100
AcDbEntity
  8
0
  6
CONTINUOUS
 62
  7
100
AcDbPolyline
 90
        4
 70
  0
 10
4.082
 20
7.963
 40
0.0
 41
0.0
 10
4.207
 20
7.947
 40
0.0
 41
0.0
 10
4.207
 20
7.98
 40
0.0
 41
0.0
 10
4.082
 20
7.963
 40
0.0
 41
0.0
  0
HATCH
  5
4B
100
AcDbEntity
  8
0
  6
CONTINUOUS
 62
  7
100
AcDbHatch
 10
0.0
 20
0.0
 30
0.0
210
0.0
220
0.0
230
1.0
  2
SOLID
 70
  1
 71
  1
 91
        1
 92
        3
 72
  0
 73
  1
 93
        3
 10
4.0820875304621485
 20
7.9633765590838577
 10
4.2070875304621485
 20
7.9471265590838573
 10
4.2070875304621485
 20
7.979626559083858
 97
        1
330
4C
 75
  0
 76
  0
 98
        0
  0
LWPOLYLINE
  5
50
100
AcDbEntity
  8
0
  6
CONTINUOUS
 62
  7
100
AcDbPolyline
 90
        4
 70
  0
 10
7.352
 20
7.963
 40
0.0
 41
0.0
 10
7.227
 20
7.98
 40
0.0
 41
0.0
 10
7.227
 20
7.947
 40
0.0
 41
0.0
 10
7.352
 20
7.963
 40
0.0
 41
0.0
  0
HATCH
  5
4E
100
AcDbEntity
  8
0
  6
CONTINUOUS
 62
  7
100
AcDbHatch
 10
0.0
 20
0.0
 30
0.0
210
0.0
220
0.0
230
1.0
  2
SOLID
 70
  1
 71
  1
 91
        1
 92
        3
 72
  0
 73
  1
 93
        3
 10
7.3517636396891684
 20
7.9633765590838577
 10
7.2267636396891684
 20
7.979626559083858
 10
7.2267636396891684
 20
7.9471265590838573
 97
        1
330
4F
 75
  0
 76
  0
 98
        0
  0
TEXT
  5
51
100
AcDbEntity
  8
0
  6
CONTINUOUS
 62
  7
100
AcDbText
 10
5.471
 20
8.065
 30
0.0
 40
0.117
  1
3 1/4
  7
_TCW_TXTSTY_1
 72
  1
 11
5.649
 21
8.123
 31
0.0
100
AcDbText
 73
  2
  0
TEXT
  5
52
100
AcDbEntity
  8
0
  6
CONTINUOUS
 62
  7
100
AcDbText
 10
5.827
 20
8.065
 30
0.0
 40
0.117
  1
in
  7
_TCW_TXTSTY_1
 11
5.827
 21
8.181
 31
0.0
100
AcDbText
 73
  3
  0
ENDBLK
  5
53
100
AcDbEntity
  8
0
100
AcDbBlockEnd
  0
ENDSEC
  0
SECTION
  2
ENTITIES
  0
VIEWPORT
  5
30
100
AcDbEntity
 67
  1
  8
0
100
AcDbViewport
 10
4.549
 20
4.789
 30
0.0
 40
15.064
 41
8.808
 68
  1
 69
  1
1001
ACAD
1000
MVIEW
1002
{
1070
 16
1010
0.0
1020
0.0
1030
0.0
1010
0.0
1020
0.0
1030
1.0
1040
0.0
1040
8.808
1040
4.549
1040
4.789
1040
50.0
1040
0.0
1040
0.0
1070
  0
1070
100
1070
  0
1070
  1
1070
  0
1070
  0
1070
  0
1070
  0
1040
0.0
1040
0.0
1040
0.0
1040
0.5
1040
0.5
1040
0.5
1040
0.5
1070
  0
1002
{
1002
}
1002
}
  0
TEXT
  5
31
100
AcDbEntity
 67
  1
  8
0
  6
CONTINUOUS
 62
  7
100
AcDbText
 10
4.837
 20
2.278
 30
0.0
 40
0.133
  1
Crown # 3362
  7
_TCW_TXTSTY_1
 11
4.837
 21
2.412
 31
0.0
100
AcDbText
 73
  3
1001
TCAD
1000
TCW40_TEXT
1002
{
1000
Times New Roman
1070
  0
1070
257
1002
}
  0
MTEXT
  5
33
100
AcDbEntity
 67
  1
  8
0
  6
CONTINUOUS
 62
  7
100
AcDbMText
 10
4.837
 20
2.003
 30
0.0
 40
0.087
 41
1.35
 71
  1
 72
  1
  1
{Saroyan Lumber Co.\P(800) 624-9309}
  7
_TCW_TXTSTY_2
1001
TCAD
1000
TCW_REFPOINT
1002
{
1010
4.837
1020
1.893
1030
0.0
1002
}
1001
TCAD
1000
TCW40_TEXT
1002
{
1000
Times New Roman
1070
  0
1070
257
1002
}
  0
TEXT
  5
34
100
AcDbEntity
 67
  1
  8
0
  6
CONTINUOUS
 62
  7
100
AcDbText
 10
4.837
 20
2.098
 30
0.0
 40
0.1
  1
1 x 4-5/8
  7
_TCW_TXTSTY_1
 11
4.837
 21
2.198
 31
0.0
100
AcDbText
 73
  3
1001
TCAD
1000
TCW_REFPOINT
1002
{
1010
4.837
1020
2.231
1030
0.0
1002
}
1001
TCAD
1000
TCW40_TEXT
1002
{
1000
Times New Roman
1070
  0
1070
257
1002
}
  0
DIMENSION
  5
44
100
AcDbEntity
 67
  1
  8
0
  6
CONTINUOUS
 62
  7
100
AcDbDimension
  2
*D0
 10
2.802
 20
6.404
 30
0.0
 11
2.802
 21
4.769
 31
0.0
  1
<>
  3
STANDARD
100
AcDbAlignedDimension
 13
4.082
 23
3.135
 33
0.0
 14
7.352
 24
6.404
 34
0.0
 50
-90.0
100
AcDbRotatedDimension
1001
ACAD
1000
DSTYLE
1002
{
1002
}
  0
DIMENSION
  5
54
100
AcDbEntity
 67
  1
  8
0
  6
CONTINUOUS
 62
  7
100
AcDbDimension
  2
*D1
 10
7.352
 20
7.963
 30
0.0
 11
5.717
 21
8.123
 31
0.0
  1
<>
  3
STANDARD
100
AcDbAlignedDimension
 13
4.082
 23
3.135
 33
0.0
 14
7.352
 24
6.404
 34
0.0
100
AcDbRotatedDimension
1001
ACAD
1000
DSTYLE
1002
{
1002
}
  0
LWPOLYLINE
  5
55
100
AcDbEntity
 67
  1
  8
0
  6
CONTINUOUS
 62
  7
100
AcDbPolyline
 90
       10
 70
  1
 43
0.014
 10
4.448
 20
3.135
 42
-0.353
 10
7.352
 20
6.039
 10
7.352
 20
6.404
 10
6.263
 20
6.361
 10
4.459
 20
4.548
 10
4.505
 20
4.503
 10
4.436
 20
4.433
 10
4.388
 20
4.481
 10
4.08
 20
4.172
 10
4.082
 20
3.135
  0
ENDSEC
  0
SECTION
  2
OBJECTS
  0
DICTIONARY
  5
19
100
AcDbDictionary
  3
ACAD_GROUP
350
1A
  3
ACAD_MLINESTYLE
350
1B
  0
DICTIONARY
  5
1A
102
{ACAD_REACTORS
330
19
102
}
100
AcDbDictionary
  0
DICTIONARY
  5
1B
102
{ACAD_REACTORS
330
19
102
}
100
AcDbDictionary
  3
STANDARD
350
1C
  0
MLINESTYLE
  5
1C
100
AcDbMlineStyle
  2
STANDARD
 70
  0
  3

 62
256
 51
90.0
 52
90.0
 71
  3
 49
0.25
 62
  7
  6
BYLAYER
 49
0.0
 62
  7
  6
BYLAYER
 49
-0.25
 62
  7
  6
BYLAYER
  0
ENDSEC
  0
EOF
