  0
SECTION
  2
HEADER
  9
$ACADVER
  1
AC1014
  9
$ACADMAINTVER
 70
  0
  9
$DWGCODEPAGE
  3
ANSI_1252
  9
$INSBASE
 10
0.0
 20
0.0
 30
0.0
  9
$EXTMIN
 10
7.415
 20
-2.441
 30
0.0
  9
$EXTMAX
 10
10.882
 20
4.107
 30
0.0
  9
$LIMMIN
 10
1.108
 20
-6.62
  9
$LIMMAX
 10
15.108
 20
5.38
  9
$ORTHOMODE
 70
  0
  9
$REGENMODE
 70
  1
  9
$FILLMODE
 70
  1
  9
$QTEXTMODE
 70
  0
  9
$MIRRTEXT
 70
  1
  9
$DRAGMODE
 70
  0
  9
$LTSCALE
 40
1.0
  9
$OSMODE
 70
  0
  9
$ATTMODE
 70
  1
  9
$TEXTSIZE
 40
0.5
  9
$TRACEWID
 40
1.0
  9
$TEXTSTYLE
  7
STANDARD
  9
$CLAYER
  8
0
  9
$CELTYPE
  6
CONTINUOUS
  9
$CECOLOR
 62
  7
  9
$CELTSCALE
 40
1.0
  9
$DELOBJ
 70
  1
  9
$DISPSILH
 70
  0
  9
$DIMSCALE
 40
1.0
  9
$DIMASZ
 40
0.125
  9
$DIMEXO
 40
0.063
  9
$DIMDLI
 40
0.375
  9
$DIMRND
 40
0.0
  9
$DIMDLE
 40
0.0
  9
$DIMEXE
 40
0.125
  9
$DIMTP
 40
0.0
  9
$DIMTM
 40
0.0
  9
$DIMTXT
 40
0.117
  9
$DIMCEN
 40
0.09
  9
$DIMTSZ
 40
0.0
  9
$DIMTOL
 70
  0
  9
$DIMLIM
 70
  0
  9
$DIMTIH
 70
  1
  9
$DIMTOH
 70
  1
  9
$DIMSE1
 70
  0
  9
$DIMSE2
 70
  0
  9
$DIMTAD
 70
  1
  9
$DIMZIN
 70
  0
  9
$DIMBLK
  1

  9
$DIMASO
 70
  0
  9
$DIMSHO
 70
  1
  9
$DIMPOST
  1
<>in
  9
$DIMAPOST
  1
<>
  9
$DIMALT
 70
  0
  9
$DIMALTD
 70
  2
  9
$DIMALTF
 40
1.0
  9
$DIMLFAC
 40
1.0
  9
$DIMTOFL
 70
  1
  9
$DIMTVP
 40
0.0
  9
$DIMTIX
 70
  1
  9
$DIMSOXD
 70
  0
  9
$DIMSAH
 70
  0
  9
$DIMBLK1
  1

  9
$DIMBLK2
  1

  9
$DIMSTYLE
  2
STANDARD
  9
$DIMCLRD
 70
  7
  9
$DIMCLRE
 70
  7
  9
$DIMCLRT
 70
  7
  9
$DIMTFAC
 40
1.0
  9
$DIMGAP
 40
0.063
  9
$DIMJUST
 70
  0
  9
$DIMSD1
 70
  0
  9
$DIMSD2
 70
  0
  9
$DIMTOLJ
 70
  1
  9
$DIMTZIN
 70
  0
  9
$DIMALTZ
 70
  0
  9
$DIMALTTZ
 70
  0
  9
$DIMFIT
 70
  0
  9
$DIMUPT
 70
  0
  9
$DIMUNIT
 70
  5
  9
$DIMDEC
 70
  4
  9
$DIMTDEC
 70
  4
  9
$DIMALTU
 70
  2
  9
$DIMALTTD
 70
  2
  9
$DIMTXSTY
  7
STANDARD
  9
$DIMAUNIT
 70
  0
  9
$LUNITS
 70
  2
  9
$LUPREC
 70
  2
  9
$SKETCHINC
 40
1.0
  9
$FILLETRAD
 40
1.0
  9
$AUNITS
 70
  0
  9
$AUPREC
 70
  2
  9
$MENU
  1
acad
  9
$ELEVATION
 40
0.0
  9
$PELEVATION
 40
0.0
  9
$THICKNESS
 40
0.0
  9
$LIMCHECK
 70
  0
  9
$BLIPMODE
 70
  1
  9
$CHAMFERA
 40
0.0
  9
$CHAMFERB
 40
0.0
  9
$CHAMFERC
 40
0.0
  9
$CHAMFERD
 40
0.0
  9
$SKPOLY
 70
  0
  9
$TDCREATE
 40
0.000000000
  9
$TDUPDATE
 40
0.000000000
  9
$TDINDWG
 40
0.0000000000
  9
$TDUSRTIMER
 40
0.0000000000
  9
$USRTIMER
 70
  1
  9
$ANGBASE
 50
0.0
  9
$ANGDIR
 70
  0
  9
$PDMODE
 70
  0
  9
$PDSIZE
 40
0.0
  9
$PLINEWID
 40
0.0
  9
$COORDS
 70
  0
  9
$SPLFRAME
 70
  0
  9
$SPLINETYPE
 70
  6
  9
$SPLINESEGS
 70
 20
  9
$ATTDIA
 70
  0
  9
$ATTREQ
 70
  1
  9
$HANDLING
 70
  1
  9
$HANDSEED
  5
94
  9
$SURFTAB1
 70
  6
  9
$SURFTAB2
 70
  6
  9
$SURFTYPE
 70
  6
  9
$SURFU
 70
  6
  9
$SURFV
 70
  6
  9
$UCSNAME
  2

  9
$UCSORG
 10
0.0
 20
0.0
 30
0.0
  9
$UCSXDIR
 10
1.0
 20
0.0
 30
0.0
  9
$UCSYDIR
 10
0.0
 20
1.0
 30
0.0
  9
$PUCSNAME
  2

  9
$PUCSORG
 10
0.0
 20
0.0
 30
0.0
  9
$PUCSXDIR
 10
1.0
 20
0.0
 30
0.0
  9
$PUCSYDIR
 10
0.0
 20
1.0
 30
0.0
  9
$USERI1
 70
  0
  9
$USERI2
 70
  0
  9
$USERI3
 70
  0
  9
$USERI4
 70
  0
  9
$USERI5
 70
  0
  9
$USERR1
 40
0.0
  9
$USERR2
 40
0.0
  9
$USERR3
 40
0.0
  9
$USERR4
 40
0.0
  9
$USERR5
 40
0.0
  9
$WORLDVIEW
 70
  1
  9
$SHADEDGE
 70
  3
  9
$SHADEDIF
 70
 70
  9
$TILEMODE
 70
  0
  9
$MAXACTVP
 70
 16
  9
$PINSBASE
 10
0.0
 20
0.0
 30
0.0
  9
$PLIMCHECK
 70
  0
  9
$PEXTMIN
 10
1.25
 20
-1.25
 30
0.0
  9
$PEXTMAX
 10
9.75
 20
9.75
 30
0.0
  9
$PLIMMIN
 10
1.25
 20
-1.25
  9
$PLIMMAX
 10
9.75
 20
9.75
  9
$UNITMODE
 70
  0
  9
$VISRETAIN
 70
  0
  9
$PLINEGEN
 70
  1
  9
$PSLTSCALE
 70
  1
  9
$TREEDEPTH
 70
3020
  9
$PICKSTYLE
 70
  1
  9
$CMLSTYLE
  2
STANDARD
  9
$CMLJUST
 70
  0
  9
$CMLSCALE
 40
1.0
  9
$PROXYGRAPHICS
 70
  0
  9
$MEASUREMENT
 70
  0
  0
ENDSEC
  0
SECTION
  2
CLASSES
  0
CLASS
  1
LWPOLYLINE
  2
AcDbPolyline
  3
"AutoCAD"
 90
        0
280
  0
281
  1
  0
CLASS
  1
IMAGE
  2
AcDbRasterImage
  3
ISM
 90
      127
280
  0
281
  1
  0
CLASS
  1
OLE2FRAME
  2
AcDbOle2Frame
  3
""
 90
        0
280
  0
281
  1
  0
CLASS
  1
HATCH
  2
AcDbHatch
  3
"ACAD_SEDONA"
 90
        0
280
  0
281
  1
  0
CLASS
  1
DICTIONARYVAR
  2
AcDbDictionaryVar
  3
"AutoCAD"
 90
        0
280
  0
281
  0
  0
CLASS
  1
RASTERVARIABLES
  2
AcDbRasterVariables
  3
ISM
 90
        0
280
  0
281
  0
  0
CLASS
  1
IMAGEDEF
  2
AcDbRasterImageDef
  3
ISM
 90
        0
280
  0
281
  0
  0
CLASS
  1
IMAGEDEF_REACTOR
  2
AcDbRasterImageDefReactor
  3
ISM
 90
        1
280
  0
281
  0
  0
CLASS
  1
IDBUFFER
  2
AcDbIdBuffer
  3
"Acad"
 90
        0
280
  0
281
  0
  0
CLASS
  1
SPATIAL_FILTER
  2
AcDbSpatialFilter
  3
"Acad"
 90
        0
280
  0
281
  0
  0
CLASS
  1
XRECORD
  2
AcDbXrecord
  3
"<Built In>"
 90
        0
280
  0
281
  0
  0
CLASS
  1
SORTENTSTABLE
  2
AcDbSortentsTable
  3
"AutoCAD"
 90
        0
280
  0
281
  0
  0
CLASS
  1
LAYER_INDEX
  2
AcDbLayerIndex
  3
"Acad"
 90
        0
280
  0
281
  0
  0
CLASS
  1
SPATIAL_INDEX
  2
AcDbSpatialIndex
  3
"Acad"
 90
        0
280
  0
281
  0
  0
CLASS
  1
OBJECT_PTR
  2
CAseDLPNTableRecord
  3
"ASE-LPNTableRecord"
 90
        1
280
  0
281
  0
  0
CLASS
  1
LAYOUT
  2
AcDbLayout
  3
"AutoCAD 2000"
 90
        1
280
  0
281
  0
  0
CLASS
  1
PLOTSETTINGS
  2
AcDbPlotSettings
  3
"AutoCAD 2000"
 90
        1
280
  0
281
  0
  0
CLASS
  1
ACDBDICTIONARYWDFLT
  2
AcDbDictionaryWithDefault
  3
"AutoCAD 2000"
 90
        1
280
  0
281
  0
  0
CLASS
  1
ACDBPLACEHOLDER
  2
AcDbPlaceHolder
  3
"AutoCAD 2000"
 90
        1
280
  0
281
  0
  0
ENDSEC
  0
SECTION
  2
TABLES
  0
TABLE
  2
VPORT
  5
7
100
AcDbSymbolTable
 70
  1
  0
VPORT
  5
15
100
AcDbSymbolTableRecord
100
AcDbViewportTableRecord
  2
*ACTIVE
 70
  0
 10
0.0
 20
0.0
 11
1.0
 21
1.0
 12
5.592
 22
3.939
 13
0.0
 23
0.0
 14
0.5
 24
0.5
 15
0.5
 25
0.5
 16
0.0
 26
0.0
 36
1.0
 17
0.0
 27
0.0
 37
0.0
 40
7.376
 41
1.695
 42
50.0
 43
0.0
 44
0.0
 50
0.0
 51
0.0
 71
  0
 72
100
 73
  1
 74
  1
 75
  0
 76
  0
 77
  0
 78
  0
  0
ENDTAB
  0
TABLE
  2
LTYPE
  5
4
100
AcDbSymbolTable
 70
 15
  0
LTYPE
  5
11
100
AcDbSymbolTableRecord
100
AcDbLinetypeTableRecord
  2
BYBLOCK
 70
 64
  3

 72
 65
 73
  0
 40
0.0
  0
LTYPE
  5
12
100
AcDbSymbolTableRecord
100
AcDbLinetypeTableRecord
  2
BYLAYER
 70
 64
  3

 72
 65
 73
  0
 40
0.0
  0
LTYPE
  5
13
100
AcDbSymbolTableRecord
100
AcDbLinetypeTableRecord
  2
CONTINUOUS
 70
 64
  3
Solid line
 72
 65
 73
  0
 40
0.0
  0
LTYPE
  5
1E
100
AcDbSymbolTableRecord
100
AcDbLinetypeTableRecord
  2
BORDER
 70
  0
  3
BORDER
 72
 65
 73
  6
 40
1.75
 49
0.5
 74
  0
 49
-0.25
 74
  0
 49
0.5
 74
  0
 49
-0.25
 74
  0
 49
0.0
 74
  0
 49
-0.25
 74
  0
  0
LTYPE
  5
1F
100
AcDbSymbolTableRecord
100
AcDbLinetypeTableRecord
  2
CENTER
 70
  0
  3
CENTER
 72
 65
 73
  4
 40
2.0
 49
1.25
 74
  0
 49
-0.25
 74
  0
 49
0.25
 74
  0
 49
-0.25
 74
  0
  0
LTYPE
  5
20
100
AcDbSymbolTableRecord
100
AcDbLinetypeTableRecord
  2
DASHDOT
 70
  0
  3
DASHDOT
 72
 65
 73
  4
 40
1.0
 49
0.5
 74
  0
 49
-0.25
 74
  0
 49
0.0
 74
  0
 49
-0.25
 74
  0
  0
LTYPE
  5
21
100
AcDbSymbolTableRecord
100
AcDbLinetypeTableRecord
  2
DASHED
 70
  0
  3
DASHED
 72
 65
 73
  2
 40
0.75
 49
0.5
 74
  0
 49
-0.25
 74
  0
  0
LTYPE
  5
22
100
AcDbSymbolTableRecord
100
AcDbLinetypeTableRecord
  2
DIVIDE
 70
  0
  3
DIVIDE
 72
 65
 73
  6
 40
1.25
 49
0.5
 74
  0
 49
-0.25
 74
  0
 49
0.0
 74
  0
 49
-0.25
 74
  0
 49
0.0
 74
  0
 49
-0.25
 74
  0
  0
LTYPE
  5
23
100
AcDbSymbolTableRecord
100
AcDbLinetypeTableRecord
  2
DOT
 70
  0
  3
DOT
 72
 65
 73
  2
 40
0.25
 49
0.0
 74
  0
 49
-0.25
 74
  0
  0
LTYPE
  5
24
100
AcDbSymbolTableRecord
100
AcDbLinetypeTableRecord
  2
HIDDEN
 70
  0
  3
HIDDEN
 72
 65
 73
  2
 40
0.375
 49
0.25
 74
  0
 49
-0.125
 74
  0
  0
LTYPE
  5
25
100
AcDbSymbolTableRecord
100
AcDbLinetypeTableRecord
  2
PHANTOM
 70
  0
  3
PHANTOM
 72
 65
 73
  6
 40
2.5
 49
1.25
 74
  0
 49
-0.25
 74
  0
 49
0.25
 74
  0
 49
-0.25
 74
  0
 49
0.25
 74
  0
 49
-0.25
 74
  0
  0
LTYPE
  5
26
100
AcDbSymbolTableRecord
100
AcDbLinetypeTableRecord
  2
$INVISIBLE
 70
  0
  3
$INVISIBLE
 72
 65
 73
  2
 40
200.0
 49
-100.0
 74
  0
 49
-100.0
 74
  0
  0
LTYPE
  5
27
100
AcDbSymbolTableRecord
100
AcDbLinetypeTableRecord
  2
$SNAPEXT
 70
  0
  3
$SNAPEXT
 72
 65
 73
  2
 40
0.04
 49
0.02
 74
  0
 49
-0.02
 74
  0
  0
LTYPE
  5
28
100
AcDbSymbolTableRecord
100
AcDbLinetypeTableRecord
  2
$CONSTRUCTION
 70
  0
  3
$CONSTRUCTION
 72
 65
 73
  4
 40
0.3
 49
0.2
 74
  0
 49
-0.05
 74
  0
 49
0.0
 74
  0
 49
-0.05
 74
  0
  0
LTYPE
  5
29
100
AcDbSymbolTableRecord
100
AcDbLinetypeTableRecord
  2
$AUXILIARY
 70
  0
  3
$AUXILIARY
 72
 65
 73
  2
 40
0.1
 49
0.05
 74
  0
 49
-0.05
 74
  0
  0
ENDTAB
  0
TABLE
  2
LAYER
  5
2
100
AcDbSymbolTable
 70
  5
  0
LAYER
  5
14
100
AcDbSymbolTableRecord
100
AcDbLayerTableRecord
  2
0
 70
  0
 62
  7
  6
CONTINUOUS
1001
TCAD
1000
TCW_LAYER_ORDER
1002
{
1071
        0
1002
}
  0
LAYER
  5
2A
100
AcDbSymbolTableRecord
100
AcDbLayerTableRecord
  2
$CONSTRUCTION
 70
  0
 62
  9
  6
$CONSTRUCTION
1001
TCAD
1000
TCW_LAYER_ORDER
1002
{
1071
        0
1002
}
  0
LAYER
  5
2B
100
AcDbSymbolTableRecord
100
AcDbLayerTableRecord
  2
LAYER_1
 70
  0
 62
  7
  6
CONTINUOUS
1001
TCAD
1000
TCW_LAYER_ORDER
1002
{
1071
        0
1002
}
  0
LAYER
  5
2C
100
AcDbSymbolTableRecord
100
AcDbLayerTableRecord
  2
LAYER_2
 70
  0
 62
  7
  6
CONTINUOUS
1001
TCAD
1000
TCW_LAYER_ORDER
1002
{
1071
        0
1002
}
  0
LAYER
  5
2D
100
AcDbSymbolTableRecord
100
AcDbLayerTableRecord
  2
7
 70
  0
 62
  7
  6
CONTINUOUS
1001
TCAD
1000
TCW_LAYER_ORDER
1002
{
1071
        0
1002
}
  0
ENDTAB
  0
TABLE
  2
STYLE
  5
3
100
AcDbSymbolTable
 70
  4
  0
STYLE
  5
17
100
AcDbSymbolTableRecord
100
AcDbTextStyleTableRecord
  2
STANDARD
 70
  0
 40
0.0
 41
1.0
 50
0.0
 71
  0
 42
0.15
  3
ARIAL.TTF
  4

1001
ACAD
1000
Arial
1071
       34
  0
STYLE
  5
2F
100
AcDbSymbolTableRecord
100
AcDbTextStyleTableRecord
  2
_TCW_TXTSTY_1
 70
  0
 40
0.0
 41
1.0
 50
0.0
 71
  0
 42
0.6
  3
TIMES.TTF
  4

1001
ACAD
1000
Times New Roman
1071
      290
  0
STYLE
  5
6E
100
AcDbSymbolTableRecord
100
AcDbTextStyleTableRecord
  2
_TCW_TXTSTY_2
 70
  0
 40
0.0
 41
1.22
 50
0.0
 71
  0
 42
0.087
  3
TIMES.TTF
  4

1001
ACAD
1000
Times New Roman
1071
      290
  0
STYLE
  5
72
100
AcDbSymbolTableRecord
100
AcDbTextStyleTableRecord
  2
_TCW_TXTSTY_3
 70
  0
 40
0.0
 41
1.0
 50
0.0
 71
  0
 42
0.059
  3

  4

1001
ACAD
1000
AvantGarde Bk BT
1071
 16777250
  0
ENDTAB
  0
TABLE
  2
VIEW
  5
5
100
AcDbSymbolTable
 70
  1
  0
VIEW
  5
2E
100
AcDbSymbolTableRecord
100
AcDbViewTableRecord
  2
VIEW_0
 70
  0
 40
8.268
 10
5.846
 20
4.134
 41
11.693
 11
0.0
 21
0.0
 31
1.0
 12
0.0
 22
0.0
 32
1.0
 42
50.0
 43
0.0
 44
0.0
 50
0.0
 71
  0
  0
ENDTAB
  0
TABLE
  2
UCS
  5
6
100
AcDbSymbolTable
 70
  0
  0
ENDTAB
  0
TABLE
  2
APPID
  5
8
100
AcDbSymbolTable
 70
  2
  0
APPID
  5
16
100
AcDbSymbolTableRecord
100
AcDbRegAppTableRecord
  2
ACAD
 70
  0
  0
APPID
  5
1D
100
AcDbSymbolTableRecord
100
AcDbRegAppTableRecord
  2
TCAD
 70
  0
  0
ENDTAB
  0
TABLE
  2
DIMSTYLE
  5
9
100
AcDbSymbolTable
 70
  1
  0
DIMSTYLE
105
18
100
AcDbSymbolTableRecord
100
AcDbDimStyleTableRecord
  2
STANDARD
 70
  0
  3
<>in
  4
<>
  5

  6

  7

 40
1.0
 41
0.125
 42
0.063
 43
0.375
 44
0.125
 45
0.0
 46
0.0
 47
0.0
 48
0.0
 71
  0
 72
  0
 73
  1
 74
  1
 75
  0
 76
  0
 77
  1
 78
  0
140
0.117
141
0.09
142
0.0
143
1.0
144
1.0
145
0.0
146
1.0
147
0.063
170
  0
171
  2
172
  1
173
  0
174
  1
175
  0
176
  7
177
  7
178
  7
270
  5
271
  4
272
  4
273
  2
274
  2
275
  0
280
  0
281
  0
282
  0
283
  1
284
  0
285
  0
286
  0
287
  0
288
  0
340
2F
  0
ENDTAB
  0
TABLE
  2
BLOCK_RECORD
  5
1
100
AcDbSymbolTable
 70
  4
  0
BLOCK_RECORD
  5
A
100
AcDbSymbolTableRecord
100
AcDbBlockTableRecord
  2
*MODEL_SPACE
  0
BLOCK_RECORD
  5
B
100
AcDbSymbolTableRecord
100
AcDbBlockTableRecord
  2
*PAPER_SPACE
  0
BLOCK_RECORD
  5
4C
100
AcDbSymbolTableRecord
100
AcDbBlockTableRecord
  2
*D0
  0
BLOCK_RECORD
  5
5C
100
AcDbSymbolTableRecord
100
AcDbBlockTableRecord
  2
*D1
  0
BLOCK_RECORD
  5
74
100
AcDbSymbolTableRecord
100
AcDbBlockTableRecord
  2
*D2
  0
BLOCK_RECORD
  5
84
100
AcDbSymbolTableRecord
100
AcDbBlockTableRecord
  2
*D3
  0
ENDTAB
  0
ENDSEC
  0
SECTION
  2
BLOCKS
  0
BLOCK
  5
D
100
AcDbEntity
  8
0
100
AcDbBlockBegin
  2
*MODEL_SPACE
 70
  0
 10
0.0
 20
0.0
 30
0.0
  3
*MODEL_SPACE
  1

  0
ENDBLK
  5
E
100
AcDbEntity
  8
0
100
AcDbBlockEnd
  0
BLOCK
  5
F
100
AcDbEntity
 67
  1
  8
0
100
AcDbBlockBegin
  2
*PAPER_SPACE
 70
  0
 10
0.0
 20
0.0
 30
0.0
  3
*PAPER_SPACE
  1

  0
ENDBLK
  5
10
100
AcDbEntity
 67
  1
  8
0
100
AcDbBlockEnd
  0
BLOCK
  5
4D
100
AcDbEntity
  8
0
100
AcDbBlockBegin
  2
*D0
 70
  1
 10
0.0
 20
0.0
 30
0.0
  3
*D0
  1

  0
LINE
  5
4E
100
AcDbEntity
  8
0
  6
CONTINUOUS
 62
 30
100
AcDbLine
 10
8.176
 20
3.581
 30
0.0
 11
8.176
 21
3.975
 31
0.0
  0
LINE
  5
4F
100
AcDbEntity
  8
0
  6
CONTINUOUS
 62
 30
100
AcDbLine
 10
10.051
 20
3.442
 30
0.0
 11
10.051
 21
3.975
 31
0.0
  0
LWPOLYLINE
  5
50
100
AcDbEntity
  8
0
  6
CONTINUOUS
 62
 30
100
AcDbPolyline
 90
        4
 70
  0
 10
8.301
 20
3.85
 10
8.301
 20
3.85
 10
8.301
 20
3.85
 10
9.113
 20
3.85
  0
LWPOLYLINE
  5
51
100
AcDbEntity
  8
0
  6
CONTINUOUS
 62
 30
100
AcDbPolyline
 90
        4
 70
  0
 10
9.926
 20
3.85
 10
9.926
 20
3.85
 10
9.926
 20
3.85
 10
9.113
 20
3.85
  0
LWPOLYLINE
  5
54
100
AcDbEntity
  8
0
  6
CONTINUOUS
 62
 30
100
AcDbPolyline
 90
        4
 70
  0
 10
8.176
 20
3.85
 40
0.0
 41
0.0
 10
8.301
 20
3.834
 40
0.0
 41
0.0
 10
8.301
 20
3.866
 40
0.0
 41
0.0
 10
8.176
 20
3.85
 40
0.0
 41
0.0
  0
HATCH
  5
52
100
AcDbEntity
  8
0
  6
CONTINUOUS
 62
 30
100
AcDbHatch
 10
0.0
 20
0.0
 30
0.0
210
0.0
220
0.0
230
1.0
  2
SOLID
 70
  1
 71
  1
 91
        1
 92
        3
 72
  0
 73
  1
 93
        3
 10
8.1756243050646766
 20
3.8502233264355552
 10
8.3006243050646766
 20
3.8339733264355553
 10
8.3006243050646766
 20
3.8664733264355551
 97
        1
330
53
 75
  0
 76
  0
 98
        0
  0
LWPOLYLINE
  5
57
100
AcDbEntity
  8
0
  6
CONTINUOUS
 62
 30
100
AcDbPolyline
 90
        4
 70
  0
 10
10.051
 20
3.85
 40
0.0
 41
0.0
 10
9.926
 20
3.866
 40
0.0
 41
0.0
 10
9.926
 20
3.834
 40
0.0
 41
0.0
 10
10.051
 20
3.85
 40
0.0
 41
0.0
  0
HATCH
  5
55
100
AcDbEntity
  8
0
  6
CONTINUOUS
 62
 30
100
AcDbHatch
 10
0.0
 20
0.0
 30
0.0
210
0.0
220
0.0
230
1.0
  2
SOLID
 70
  1
 71
  1
 91
        1
 92
        3
 72
  0
 73
  1
 93
        3
 10
10.050624305064677
 20
3.8502233264355552
 10
9.9256243050646766
 20
3.8664733264355551
 10
9.9256243050646766
 20
3.8339733264355553
 97
        1
330
56
 75
  0
 76
  0
 98
        0
  0
TEXT
  5
58
100
AcDbEntity
  8
0
  6
CONTINUOUS
 62
 30
100
AcDbText
 10
8.867
 20
3.952
 30
0.0
 40
0.117
  1
1 7/8
  7
_TCW_TXTSTY_1
 72
  1
 11
9.045
 21
4.01
 31
0.0
100
AcDbText
 73
  2
  0
TEXT
  5
59
100
AcDbEntity
  8
0
  6
CONTINUOUS
 62
 30
100
AcDbText
 10
9.223
 20
3.952
 30
0.0
 40
0.117
  1
in
  7
_TCW_TXTSTY_1
 11
9.223
 21
4.068
 31
0.0
100
AcDbText
 73
  3
  0
ENDBLK
  5
5A
100
AcDbEntity
  8
0
100
AcDbBlockEnd
  0
BLOCK
  5
5D
100
AcDbEntity
  8
0
100
AcDbBlockBegin
  2
*D1
 70
  1
 10
0.0
 20
0.0
 30
0.0
  3
*D1
  1

  0
LINE
  5
5E
100
AcDbEntity
  8
0
  6
CONTINUOUS
 62
 30
100
AcDbLine
 10
9.736
 20
2.518
 30
0.0
 11
10.621
 21
2.518
 31
0.0
  0
LINE
  5
5F
100
AcDbEntity
  8
0
  6
CONTINUOUS
 62
 30
100
AcDbLine
 10
9.699
 20
3.579
 30
0.0
 11
10.621
 21
3.579
 31
0.0
  0
LWPOLYLINE
  5
60
100
AcDbEntity
  8
0
  6
CONTINUOUS
 62
 30
100
AcDbPolyline
 90
        4
 70
  0
 10
10.496
 20
2.643
 10
10.496
 20
2.643
 10
10.496
 20
2.643
 10
10.496
 20
2.932
  0
LWPOLYLINE
  5
61
100
AcDbEntity
  8
0
  6
CONTINUOUS
 62
 30
100
AcDbPolyline
 90
        4
 70
  0
 10
10.496
 20
3.454
 10
10.496
 20
3.454
 10
10.496
 20
3.454
 10
10.496
 20
3.165
  0
LWPOLYLINE
  5
64
100
AcDbEntity
  8
0
  6
CONTINUOUS
 62
 30
100
AcDbPolyline
 90
        4
 70
  0
 10
10.496
 20
2.518
 40
0.0
 41
0.0
 10
10.512
 20
2.643
 40
0.0
 41
0.0
 10
10.48
 20
2.643
 40
0.0
 41
0.0
 10
10.496
 20
2.518
 40
0.0
 41
0.0
  0
HATCH
  5
62
100
AcDbEntity
  8
0
  6
CONTINUOUS
 62
 30
100
AcDbHatch
 10
0.0
 20
0.0
 30
0.0
210
0.0
220
0.0
230
1.0
  2
SOLID
 70
  1
 71
  1
 91
        1
 92
        3
 72
  0
 73
  1
 93
        3
 10
10.496175954788596
 20
2.5177342096632911
 10
10.512425954788595
 20
2.6427342096632911
 10
10.479925954788596
 20
2.6427342096632911
 97
        1
330
63
 75
  0
 76
  0
 98
        0
  0
LWPOLYLINE
  5
67
100
AcDbEntity
  8
0
  6
CONTINUOUS
 62
 30
100
AcDbPolyline
 90
        4
 70
  0
 10
10.496
 20
3.579
 40
0.0
 41
0.0
 10
10.48
 20
3.454
 40
0.0
 41
0.0
 10
10.512
 20
3.454
 40
0.0
 41
0.0
 10
10.496
 20
3.579
 40
0.0
 41
0.0
  0
HATCH
  5
65
100
AcDbEntity
  8
0
  6
CONTINUOUS
 62
 30
100
AcDbHatch
 10
0.0
 20
0.0
 30
0.0
210
0.0
220
0.0
230
1.0
  2
SOLID
 70
  1
 71
  1
 91
        1
 92
        3
 72
  0
 73
  1
 93
        3
 10
10.496175954788596
 20
3.5790923866009052
 10
10.479925954788596
 20
3.4540923866009052
 10
10.512425954788595
 20
3.4540923866009052
 97
        1
330
66
 75
  0
 76
  0
 98
        0
  0
TEXT
  5
68
100
AcDbEntity
  8
0
  6
CONTINUOUS
 62
 30
100
AcDbText
 10
10.206
 20
2.99
 30
0.0
 40
0.117
  1
1 1/16
  7
_TCW_TXTSTY_1
 72
  1
 11
10.428
 21
3.048
 31
0.0
100
AcDbText
 73
  2
  0
TEXT
  5
69
100
AcDbEntity
  8
0
  6
CONTINUOUS
 62
 30
100
AcDbText
 10
10.65
 20
2.99
 30
0.0
 40
0.117
  1
in
  7
_TCW_TXTSTY_1
 11
10.65
 21
3.107
 31
0.0
100
AcDbText
 73
  3
  0
ENDBLK
  5
6A
100
AcDbEntity
  8
0
100
AcDbBlockEnd
  0
BLOCK
  5
75
100
AcDbEntity
  8
0
100
AcDbBlockBegin
  2
*D2
 70
  1
 10
0.0
 20
0.0
 30
0.0
  3
*D2
  1

  0
LINE
  5
76
100
AcDbEntity
  8
0
  6
CONTINUOUS
 62
  7
100
AcDbLine
 10
4.834
 20
5.576
 30
0.0
 11
4.834
 21
6.327
 31
0.0
  0
LINE
  5
77
100
AcDbEntity
  8
0
  6
CONTINUOUS
 62
  7
100
AcDbLine
 10
5.9
 20
5.187
 30
0.0
 11
5.9
 21
6.327
 31
0.0
  0
LWPOLYLINE
  5
78
100
AcDbEntity
  8
0
  6
CONTINUOUS
 62
  7
100
AcDbPolyline
 90
        4
 70
  0
 10
4.959
 20
6.202
 10
4.959
 20
6.202
 10
4.959
 20
6.202
 10
5.367
 20
6.202
  0
LWPOLYLINE
  5
79
100
AcDbEntity
  8
0
  6
CONTINUOUS
 62
  7
100
AcDbPolyline
 90
        4
 70
  0
 10
5.775
 20
6.202
 10
5.775
 20
6.202
 10
5.775
 20
6.202
 10
5.367
 20
6.202
  0
LWPOLYLINE
  5
7C
100
AcDbEntity
  8
0
  6
CONTINUOUS
 62
  7
100
AcDbPolyline
 90
        4
 70
  0
 10
4.834
 20
6.202
 40
0.0
 41
0.0
 10
4.959
 20
6.185
 40
0.0
 41
0.0
 10
4.959
 20
6.218
 40
0.0
 41
0.0
 10
4.834
 20
6.202
 40
0.0
 41
0.0
  0
HATCH
  5
7A
100
AcDbEntity
  8
0
  6
CONTINUOUS
 62
  7
100
AcDbHatch
 10
0.0
 20
0.0
 30
0.0
210
0.0
220
0.0
230
1.0
  2
SOLID
 70
  1
 71
  1
 91
        1
 92
        3
 72
  0
 73
  1
 93
        3
 10
4.8339289463776938
 20
6.2017116572307671
 10
4.9589289463776938
 20
6.1854616572307668
 10
4.9589289463776938
 20
6.2179616572307674
 97
        1
330
7B
 75
  0
 76
  0
 98
        0
  0
LWPOLYLINE
  5
7F
100
AcDbEntity
  8
0
  6
CONTINUOUS
 62
  7
100
AcDbPolyline
 90
        4
 70
  0
 10
5.9
 20
6.202
 40
0.0
 41
0.0
 10
5.775
 20
6.218
 40
0.0
 41
0.0
 10
5.775
 20
6.185
 40
0.0
 41
0.0
 10
5.9
 20
6.202
 40
0.0
 41
0.0
  0
HATCH
  5
7D
100
AcDbEntity
  8
0
  6
CONTINUOUS
 62
  7
100
AcDbHatch
 10
0.0
 20
0.0
 30
0.0
210
0.0
220
0.0
230
1.0
  2
SOLID
 70
  1
 71
  1
 91
        1
 92
        3
 72
  0
 73
  1
 93
        3
 10
5.8998546764783839
 20
6.2017116572307671
 10
5.7748546764783839
 20
6.2179616572307674
 10
5.7748546764783839
 20
6.1854616572307668
 97
        1
330
7E
 75
  0
 76
  0
 98
        0
  0
TEXT
  5
80
100
AcDbEntity
  8
0
  6
CONTINUOUS
 62
  7
100
AcDbText
 10
5.077
 20
6.303
 30
0.0
 40
0.117
  1
1 1/16
  7
_TCW_TXTSTY_1
 72
  1
 11
5.299
 21
6.361
 31
0.0
100
AcDbText
 73
  2
  0
TEXT
  5
81
100
AcDbEntity
  8
0
  6
CONTINUOUS
 62
  7
100
AcDbText
 10
5.521
 20
6.303
 30
0.0
 40
0.117
  1
in
  7
_TCW_TXTSTY_1
 11
5.521
 21
6.42
 31
0.0
100
AcDbText
 73
  3
  0
ENDBLK
  5
82
100
AcDbEntity
  8
0
100
AcDbBlockEnd
  0
BLOCK
  5
85
100
AcDbEntity
  8
0
100
AcDbBlockBegin
  2
*D3
 70
  1
 10
0.0
 20
0.0
 30
0.0
  3
*D3
  1

  0
LINE
  5
86
100
AcDbEntity
  8
0
  6
CONTINUOUS
 62
  7
100
AcDbLine
 10
4.771
 20
5.513
 30
0.0
 11
3.807
 21
5.513
 31
0.0
  0
LINE
  5
87
100
AcDbEntity
  8
0
  6
CONTINUOUS
 62
  7
100
AcDbLine
 10
4.771
 20
3.638
 30
0.0
 11
3.807
 21
3.638
 31
0.0
  0
LWPOLYLINE
  5
88
100
AcDbEntity
  8
0
  6
CONTINUOUS
 62
  7
100
AcDbPolyline
 90
        4
 70
  0
 10
3.932
 20
5.388
 10
3.932
 20
5.388
 10
3.932
 20
5.388
 10
3.932
 20
4.693
  0
LWPOLYLINE
  5
89
100
AcDbEntity
  8
0
  6
CONTINUOUS
 62
  7
100
AcDbPolyline
 90
        4
 70
  0
 10
3.932
 20
3.763
 10
3.932
 20
3.763
 10
3.932
 20
3.763
 10
3.932
 20
4.459
  0
LWPOLYLINE
  5
8C
100
AcDbEntity
  8
0
  6
CONTINUOUS
 62
  7
100
AcDbPolyline
 90
        4
 70
  0
 10
3.932
 20
5.513
 40
0.0
 41
0.0
 10
3.916
 20
5.388
 40
0.0
 41
0.0
 10
3.948
 20
5.388
 40
0.0
 41
0.0
 10
3.932
 20
5.513
 40
0.0
 41
0.0
  0
HATCH
  5
8A
100
AcDbEntity
  8
0
  6
CONTINUOUS
 62
  7
100
AcDbHatch
 10
0.0
 20
0.0
 30
0.0
210
0.0
220
0.0
230
1.0
  2
SOLID
 70
  1
 71
  1
 91
        1
 92
        3
 72
  0
 73
  1
 93
        3
 10
3.9319141399869735
 20
5.5133671440408687
 10
3.9156641399869736
 20
5.3883671440408687
 10
3.9481641399869734
 20
5.3883671440408687
 97
        1
330
8B
 75
  0
 76
  0
 98
        0
  0
LWPOLYLINE
  5
8F
100
AcDbEntity
  8
0
  6
CONTINUOUS
 62
  7
100
AcDbPolyline
 90
        4
 70
  0
 10
3.932
 20
3.638
 40
0.0
 41
0.0
 10
3.948
 20
3.763
 40
0.0
 41
0.0
 10
3.916
 20
3.763
 40
0.0
 41
0.0
 10
3.932
 20
3.638
 40
0.0
 41
0.0
  0
HATCH
  5
8D
100
AcDbEntity
  8
0
  6
CONTINUOUS
 62
  7
100
AcDbHatch
 10
0.0
 20
0.0
 30
0.0
210
0.0
220
0.0
230
1.0
  2
SOLID
 70
  1
 71
  1
 91
        1
 92
        3
 72
  0
 73
  1
 93
        3
 10
3.9319141399869726
 20
3.6383671440408683
 10
3.9481641399869725
 20
3.7633671440408683
 10
3.9156641399869727
 20
3.7633671440408683
 97
        1
330
8E
 75
  0
 76
  0
 98
        0
  0
TEXT
  5
90
100
AcDbEntity
  8
0
  6
CONTINUOUS
 62
  7
100
AcDbText
 10
3.686
 20
4.518
 30
0.0
 40
0.117
  1
1 7/8
  7
_TCW_TXTSTY_1
 72
  1
 11
3.864
 21
4.576
 31
0.0
100
AcDbText
 73
  2
  0
TEXT
  5
91
100
AcDbEntity
  8
0
  6
CONTINUOUS
 62
  7
100
AcDbText
 10
4.042
 20
4.518
 30
0.0
 40
0.117
  1
in
  7
_TCW_TXTSTY_1
 11
4.042
 21
4.634
 31
0.0
100
AcDbText
 73
  3
  0
ENDBLK
  5
92
100
AcDbEntity
  8
0
100
AcDbBlockEnd
  0
ENDSEC
  0
SECTION
  2
ENTITIES
  0
VIEWPORT
  5
6C
100
AcDbEntity
 67
  1
  8
0
100
AcDbViewport
 10
6.529
 20
2.4
 30
0.0
 40
25.008
 41
14.753
 68
  1
 69
  1
1001
ACAD
1000
MVIEW
1002
{
1070
 16
1010
0.0
1020
0.0
1030
0.0
1010
0.0
1020
0.0
1030
1.0
1040
0.0
1040
14.753
1040
6.529
1040
2.4
1040
50.0
1040
0.0
1040
0.0
1070
  0
1070
100
1070
  0
1070
  1
1070
  0
1070
  0
1070
  0
1070
  0
1040
0.0
1040
0.0
1040
0.0
1040
0.5
1040
0.5
1040
0.5
1040
0.5
1070
  0
1002
{
1002
}
1002
}
  0
TEXT
  5
6D
100
AcDbEntity
 67
  1
  8
0
  6
CONTINUOUS
 62
  7
100
AcDbText
 10
4.904
 20
1.956
 30
0.0
 40
0.133
  1
# 5529
  7
_TCW_TXTSTY_1
 11
4.904
 21
2.09
 31
0.0
100
AcDbText
 73
  3
1001
TCAD
1000
TCW40_TEXT
1002
{
1000
Times New Roman
1070
  0
1070
257
1002
}
  0
MTEXT
  5
6F
100
AcDbEntity
 67
  1
  8
0
  6
CONTINUOUS
 62
  7
100
AcDbMText
 10
4.904
 20
1.681
 30
0.0
 40
0.087
 41
1.35
 71
  1
 72
  1
  1
{Saroyan Lumber Co.\P(800) 624-9309}
  7
_TCW_TXTSTY_2
1001
TCAD
1000
TCW_REFPOINT
1002
{
1010
4.904
1020
1.571
1030
0.0
1002
}
1001
TCAD
1000
TCW40_TEXT
1002
{
1000
Times New Roman
1070
  0
1070
257
1002
}
  0
TEXT
  5
70
100
AcDbEntity
 67
  1
  8
0
  6
CONTINUOUS
 62
  7
100
AcDbText
 10
4.903
 20
1.776
 30
0.0
 40
0.1
  1
1-1/16 x 1-7/8
  7
_TCW_TXTSTY_1
 11
4.903
 21
1.876
 31
0.0
100
AcDbText
 73
  3
1001
TCAD
1000
TCW_REFPOINT
1002
{
1010
4.903
1020
1.909
1030
0.0
1002
}
1001
TCAD
1000
TCW40_TEXT
1002
{
1000
Times New Roman
1070
  0
1070
257
1002
}
  0
LWPOLYLINE
  5
71
100
AcDbEntity
 67
  1
  8
0
  6
CONTINUOUS
 62
  7
100
AcDbPolyline
 90
       11
 70
  1
 43
0.014
 10
5.504
 20
4.767
 42
0.863
 10
5.632
 20
5.513
 10
4.834
 20
5.513
 10
4.834
 20
3.638
 10
5.034
 20
3.638
 10
5.034
 20
3.73
 42
-0.214
 10
5.2
 20
4.106
 42
0.023
 10
5.32
 20
4.226
 42
0.193
 10
5.422
 20
4.494
 10
5.422
 20
4.581
 10
5.504
 20
4.581
  0
TEXT
  5
73
100
AcDbEntity
 67
  1
  8
0
  6
CONTINUOUS
 62
  7
100
AcDbText
 10
4.933
 20
4.411
 30
0.0
 40
0.059
  1
© 2003 The Premium Series
 50
90.0
  7
_TCW_TXTSTY_3
 11
4.874
 21
4.411
 31
0.0
100
AcDbText
 73
  3
1001
TCAD
1000
TCW40_TEXT
1002
{
1000
AvantGarde Bk BT
1070
  1
1070
257
1002
}
  0
DIMENSION
  5
83
100
AcDbEntity
 67
  1
  8
0
  6
CONTINUOUS
 62
  7
100
AcDbDimension
  2
*D2
 10
5.9
 20
6.202
 30
0.0
 11
5.367
 21
6.361
 31
0.0
  1
<>
  3
STANDARD
100
AcDbAlignedDimension
 13
4.834
 23
5.513
 33
0.0
 14
5.9
 24
5.124
 34
0.0
100
AcDbRotatedDimension
1001
ACAD
1000
DSTYLE
1002
{
1002
}
  0
DIMENSION
  5
93
100
AcDbEntity
 67
  1
  8
0
  6
CONTINUOUS
 62
  7
100
AcDbDimension
  2
*D3
 10
3.932
 20
3.638
 30
0.0
 11
3.932
 21
4.576
 31
0.0
  1
<>
  3
STANDARD
100
AcDbAlignedDimension
 13
4.834
 23
5.513
 33
0.0
 14
4.834
 24
3.638
 34
0.0
 50
-90.0
100
AcDbRotatedDimension
1001
ACAD
1000
DSTYLE
1002
{
1002
}
  0
LINE
  5
30
100
AcDbEntity
  8
0
  6
CONTINUOUS
 62
 30
100
AcDbLine
 10
9.34
 20
0.324
 30
0.0
 11
9.154
 21
0.324
 31
0.0
  0
LINE
  5
31
100
AcDbEntity
  8
0
  6
CONTINUOUS
 62
 30
100
AcDbLine
 10
9.154
 20
0.406
 30
0.0
 11
9.067
 21
0.406
 31
0.0
  0
LINE
  5
32
100
AcDbEntity
  8
0
  6
CONTINUOUS
 62
 30
100
AcDbLine
 10
8.211
 20
-1.252
 30
0.0
 11
8.211
 21
-1.67
 31
0.0
  0
LINE
  5
33
100
AcDbEntity
  8
0
  6
CONTINUOUS
 62
 30
100
AcDbLine
 10
10.086
 20
-1.252
 30
0.0
 11
10.086
 21
-1.67
 31
0.0
  0
ARC
  5
34
100
AcDbEntity
  8
0
  6
CONTINUOUS
 62
 30
100
AcDbCircle
 10
9.722
 20
0.314
 30
0.0
 40
0.383
100
AcDbArc
 50
178.62
 51
341.827
  0
LINE
  5
35
100
AcDbEntity
  8
0
  6
CONTINUOUS
 62
 30
100
AcDbLine
 10
9.154
 20
0.406
 30
0.0
 11
9.154
 21
0.324
 31
0.0
  0
LINE
  5
36
100
AcDbEntity
  8
0
  6
CONTINUOUS
 62
 30
100
AcDbLine
 10
8.302
 20
0.794
 30
0.0
 11
7.424
 21
0.794
 31
0.0
  0
ARC
  5
37
100
AcDbEntity
  8
0
  6
CONTINUOUS
 62
 30
100
AcDbCircle
 10
8.305
 20
0.29
 30
0.0
 40
0.504
100
AcDbArc
 50
42.08
 51
90.304
  0
ARC
  5
38
100
AcDbEntity
  8
0
  6
CONTINUOUS
 62
 30
100
AcDbCircle
 10
9.059
 20
0.791
 30
0.0
 40
0.386
100
AcDbArc
 50
-132.548
 51
-88.888
  0
ARC
  5
39
100
AcDbEntity
  8
0
  6
CONTINUOUS
 62
 30
100
AcDbCircle
 10
10.02
 20
1.838
 30
0.0
 40
1.807
100
AcDbArc
 50
-137.92
 51
-132.548
  0
LINE
  5
3A
100
AcDbEntity
  8
0
  6
CONTINUOUS
 62
 30
100
AcDbLine
 10
9.037
 20
2.991
 30
0.0
 11
9.117
 21
2.991
 31
0.0
  0
LINE
  5
3B
100
AcDbEntity
  8
0
  6
CONTINUOUS
 62
 30
100
AcDbLine
 10
9.304
 20
2.909
 30
0.0
 11
9.118
 21
2.909
 31
0.0
  0
LINE
  5
3C
100
AcDbEntity
  8
0
  6
CONTINUOUS
 62
 30
100
AcDbLine
 10
9.118
 20
2.991
 30
0.0
 11
9.031
 21
2.991
 31
0.0
  0
LINE
  5
3D
100
AcDbEntity
  8
0
  6
CONTINUOUS
 62
 30
100
AcDbLine
 10
8.176
 20
3.579
 30
0.0
 11
8.176
 21
3.379
 31
0.0
  0
LINE
  5
3E
100
AcDbEntity
  8
0
  6
CONTINUOUS
 62
 30
100
AcDbLine
 10
10.051
 20
3.579
 30
0.0
 11
10.051
 21
2.781
 31
0.0
  0
ARC
  5
3F
100
AcDbEntity
  8
0
  6
CONTINUOUS
 62
 30
100
AcDbCircle
 10
9.687
 20
2.9
 30
0.0
 40
0.383
100
AcDbArc
 50
178.62
 51
341.827
  0
LINE
  5
40
100
AcDbEntity
  8
0
  6
CONTINUOUS
 62
 30
100
AcDbLine
 10
9.118
 20
2.991
 30
0.0
 11
9.118
 21
2.909
 31
0.0
  0
LINE
  5
41
100
AcDbEntity
  8
0
  6
CONTINUOUS
 62
 30
100
AcDbLine
 10
8.267
 20
3.379
 30
0.0
 11
8.176
 21
3.379
 31
0.0
  0
LINE
  5
42
100
AcDbEntity
  8
0
  6
CONTINUOUS
 62
 30
100
AcDbLine
 10
10.051
 20
3.579
 30
0.0
 11
8.176
 21
3.579
 31
0.0
  0
ARC
  5
43
100
AcDbEntity
  8
0
  6
CONTINUOUS
 62
 30
100
AcDbCircle
 10
8.27
 20
2.876
 30
0.0
 40
0.504
100
AcDbArc
 50
42.08
 51
90.304
  0
ARC
  5
44
100
AcDbEntity
  8
0
  6
CONTINUOUS
 62
 30
100
AcDbCircle
 10
9.024
 20
3.377
 30
0.0
 40
0.386
100
AcDbArc
 50
-132.548
 51
-88.888
  0
ARC
  5
45
100
AcDbEntity
  8
0
  6
CONTINUOUS
 62
 30
100
AcDbCircle
 10
9.985
 20
4.424
 30
0.0
 40
1.807
100
AcDbArc
 50
-137.92
 51
-132.548
  0
LINE
  5
46
100
AcDbEntity
  8
0
  6
CONTINUOUS
 62
 30
100
AcDbLine
 10
10.873
 20
-2.432
 30
0.0
 11
7.424
 21
-2.432
 31
0.0
1001
ACAD
1000
TCW40_DEV_WIDTH
1002
{
1040
0.014
1002
}
  0
LINE
  5
47
100
AcDbEntity
  8
0
  6
CONTINUOUS
 62
 30
100
AcDbLine
 10
10.873
 20
0.349
 30
0.0
 11
10.873
 21
-2.432
 31
0.0
1001
ACAD
1000
TCW40_DEV_WIDTH
1002
{
1040
0.014
1002
}
  0
LINE
  5
48
100
AcDbEntity
  8
0
  6
CONTINUOUS
 62
 30
100
AcDbLine
 10
7.424
 20
0.794
 30
0.0
 11
7.424
 21
-2.432
 31
0.0
1001
ACAD
1000
TCW40_DEV_WIDTH
1002
{
1040
0.014
1002
}
  0
ARC
  5
49
100
AcDbEntity
  8
0
  6
CONTINUOUS
 62
 30
100
AcDbCircle
 10
10.27
 20
0.162
 30
0.0
 40
0.187
100
AcDbArc
 50
90.0
 51
169.803
1001
ACAD
1000
TCW40_DEV_WIDTH
1002
{
1040
0.014
1002
}
  0
LINE
  5
4A
100
AcDbEntity
  8
0
  6
CONTINUOUS
 62
 30
100
AcDbLine
 10
10.27
 20
0.349
 30
0.0
 11
10.873
 21
0.349
 31
0.0
1001
ACAD
1000
TCW40_DEV_WIDTH
1002
{
1040
0.014
1002
}
  0
TEXT
  5
4B
100
AcDbEntity
  8
0
  6
CONTINUOUS
 62
 30
100
AcDbText
 10
7.544
 20
-0.766
 30
0.0
 40
0.319
  1
STOCK # 5529
 11
7.544
 21
-0.446
 31
0.0
100
AcDbText
 73
  3
1001
TCAD
1000
TCW40_TEXT
1002
{
1000
Arial
1070
  0
1070
257
1002
}
  0
DIMENSION
  5
5B
100
AcDbEntity
  8
0
  6
CONTINUOUS
 62
 30
100
AcDbDimension
  2
*D0
 10
10.051
 20
3.85
 30
0.0
 11
9.113
 21
4.01
 31
0.0
  1
<>
  3
STANDARD
100
AcDbAlignedDimension
 13
8.176
 23
3.519
 33
0.0
 14
10.051
 24
3.38
 34
0.0
100
AcDbRotatedDimension
1001
ACAD
1000
DSTYLE
1002
{
1070
176
1070
 30
1070
177
1070
 30
1070
178
1070
 30
1002
}
  0
DIMENSION
  5
6B
100
AcDbEntity
  8
0
  6
CONTINUOUS
 62
 30
100
AcDbDimension
  2
*D1
 10
10.496
 20
3.579
 30
0.0
 11
10.496
 21
3.048
 31
0.0
  1
<>
  3
STANDARD
100
AcDbAlignedDimension
 13
9.673
 23
2.518
 33
0.0
 14
9.636
 24
3.579
 34
0.0
 50
-90.0
100
AcDbRotatedDimension
1001
ACAD
1000
DSTYLE
1002
{
1070
176
1070
 30
1070
177
1070
 30
1070
178
1070
 30
1002
}
  0
ENDSEC
  0
SECTION
  2
OBJECTS
  0
DICTIONARY
  5
19
100
AcDbDictionary
  3
ACAD_GROUP
350
1A
  3
ACAD_MLINESTYLE
350
1B
  0
DICTIONARY
  5
1A
102
{ACAD_REACTORS
330
19
102
}
100
AcDbDictionary
  0
DICTIONARY
  5
1B
102
{ACAD_REACTORS
330
19
102
}
100
AcDbDictionary
  3
STANDARD
350
1C
  0
MLINESTYLE
  5
1C
100
AcDbMlineStyle
  2
STANDARD
 70
  0
  3

 62
256
 51
90.0
 52
90.0
 71
  3
 49
0.25
 62
  7
  6
BYLAYER
 49
0.0
 62
  7
  6
BYLAYER
 49
-0.25
 62
  7
  6
BYLAYER
  0
ENDSEC
  0
EOF
