  0
SECTION
  2
HEADER
  9
$ACADVER
  1
AC1015
  9
$ACADMAINTVER
 70
           6
  9
$DWGCODEPAGE
  3
ANSI_1252
  9
$INSBASE
 10
0.0
 20
0.0
 30
0.0
  9
$EXTMIN
 10
1.000000000000E+20
 20
1.000000000000E+20
 30
1.000000000000E+20
  9
$EXTMAX
 10
-1.000000000000E+20
 20
-1.000000000000E+20
 30
-1.000000000000E+20
  9
$LIMMIN
 10
0.0
 20
0.0
  9
$LIMMAX
 10
8.5
 20
11.0
  9
$ORTHOMODE
 70
           1
  9
$REGENMODE
 70
           1
  9
$FILLMODE
 70
           1
  9
$QTEXTMODE
 70
           0
  9
$MIRRTEXT
 70
           1
  9
$LTSCALE
 40
1.0
  9
$ATTMODE
 70
           1
  9
$TEXTSIZE
 40
0.2
  9
$TRACEWID
 40
0.05
  9
$TEXTSTYLE
  7
STANDARD
  9
$CLAYER
  8
0
  9
$CELTYPE
  6
Continuous
  9
$CECOLOR
 62
           7
  9
$CELTSCALE
 40
1.0
  9
$DISPSILH
 70
           0
  9
$DIMSCALE
 40
1.0
  9
$DIMASZ
 40
0.18
  9
$DIMEXO
 40
0.0625
  9
$DIMDLI
 40
0.38
  9
$DIMRND
 40
0.0000001
  9
$DIMDLE
 40
0.0
  9
$DIMEXE
 40
0.18
  9
$DIMTP
 40
0.0
  9
$DIMTM
 40
0.0
  9
$DIMTXT
 40
0.1
  9
$DIMCEN
 40
0.09
  9
$DIMTSZ
 40
0.0
  9
$DIMTOL
 70
           0
  9
$DIMLIM
 70
           0
  9
$DIMTIH
 70
           1
  9
$DIMTOH
 70
           1
  9
$DIMSE1
 70
           0
  9
$DIMSE2
 70
           0
  9
$DIMTAD
 70
           0
  9
$DIMZIN
 70
           0
  9
$DIMBLK
  1

  9
$DIMASO
 70
           0
  9
$DIMSHO
 70
           1
  9
$DIMPOST
  1
<>
  9
$DIMAPOST
  1
<>
  9
$DIMALT
 70
           0
  9
$DIMALTD
 70
           2
  9
$DIMALTF
 40
25.4
  9
$DIMLFAC
 40
1.0
  9
$DIMTOFL
 70
           0
  9
$DIMTVP
 40
0.0
  9
$DIMTIX
 70
           0
  9
$DIMSOXD
 70
           0
  9
$DIMSAH
 70
           0
  9
$DIMBLK1
  1

  9
$DIMBLK2
  1

  9
$DIMSTYLE
  2
STANDARD
  9
$DIMCLRD
 70
           0
  9
$DIMCLRE
 70
           0
  9
$DIMCLRT
 70
           0
  9
$DIMTFAC
 40
1.0
  9
$DIMGAP
 40
0.09
  9
$DIMJUST
 70
           0
  9
$DIMSD1
 70
           0
  9
$DIMSD2
 70
           0
  9
$DIMTOLJ
 70
           1
  9
$DIMTZIN
 70
           0
  9
$DIMALTZ
 70
           0
  9
$DIMALTTZ
 70
           0
  9
$DIMUPT
 70
           0
  9
$DIMDEC
 70
           4
  9
$DIMTDEC
 70
           4
  9
$DIMALTU
 70
           2
  9
$DIMALTTD
 70
           2
  9
$DIMTXSTY
  7
STANDARD
  9
$DIMAUNIT
 70
           0
  9
$DIMADEC
 70
           4
  9
$DIMALTRND
 40
0.0
  9
$DIMAZIN
 70
           0
  9
$DIMDSEP
 70
           0
  9
$DIMATFIT
 70
           0
  9
$DIMFRAC
 70
           0
  9
$DIMLDRBLK
  1

  9
$DIMLUNIT
 70
           2
  9
$DIMLWD
 70
           0
  9
$DIMLWE
 70
           0
  9
$DIMTMOVE
 70
           0
  9
$LUNITS
 70
           2
  9
$LUPREC
 70
           4
  9
$SKETCHINC
 40
0.1
  9
$FILLETRAD
 40
0.0
  9
$AUNITS
 70
           0
  9
$AUPREC
 70
           0
  9
$MENU
  1
acad
  9
$ELEVATION
 40
0.0
  9
$PELEVATION
 40
0.0
  9
$THICKNESS
 40
0.0
  9
$LIMCHECK
 70
           0
  9
$CHAMFERA
 40
0.0
  9
$CHAMFERB
 40
0.0
  9
$CHAMFERC
 40
0.0
  9
$CHAMFERD
 40
0.0
  9
$SKPOLY
 70
           0
  9
$TDCREATE
 40
0.000000000
  9
$TDUCREATE
 40
0.000000000
  9
$TDUPDATE
 40
0.000000000
  9
$TDUUPDATE
 40
0.000000000
  9
$TDINDWG
 40
0.0179515741
  9
$TDUSRTIMER
 40
0.0000000000
  9
$USRTIMER
 70
           1
  9
$ANGBASE
 50
0.0
  9
$ANGDIR
 70
           0
  9
$PDMODE
 70
           0
  9
$PDSIZE
 40
0.0
  9
$PLINEWID
 40
0.0
  9
$SPLFRAME
 70
           0
  9
$SPLINETYPE
 70
           6
  9
$SPLINESEGS
 70
           8
  9
$HANDSEED
  5
71
  9
$SURFTAB1
 70
           6
  9
$SURFTAB2
 70
           6
  9
$SURFTYPE
 70
           6
  9
$SURFU
 70
           6
  9
$SURFV
 70
           6
  9
$UCSBASE
  2

  9
$UCSNAME
  2

  9
$UCSORG
 10
0.0
 20
0.0
 30
0.0
  9
$UCSXDIR
 10
1.0
 20
0.0
 30
0.0
  9
$UCSYDIR
 10
0.0
 20
1.0
 30
0.0
  9
$UCSORTHOREF
  2

  9
$UCSORTHOVIEW
 70
           0
  9
$UCSORGTOP
 10
0.0
 20
0.0
 30
0.0
  9
$UCSORGBOTTOM
 10
0.0
 20
0.0
 30
0.0
  9
$UCSORGLEFT
 10
0.0
 20
0.0
 30
0.0
  9
$UCSORGRIGHT
 10
0.0
 20
0.0
 30
0.0
  9
$UCSORGFRONT
 10
0.0
 20
0.0
 30
0.0
  9
$UCSORGBACK
 10
0.0
 20
0.0
 30
0.0
  9
$PUCSBASE
  2

  9
$PUCSNAME
  2

  9
$PUCSORG
 10
0.0
 20
0.0
 30
0.0
  9
$PUCSXDIR
 10
1.0
 20
0.0
 30
0.0
  9
$PUCSYDIR
 10
0.0
 20
1.0
 30
0.0
  9
$PUCSORTHOREF
  2

  9
$PUCSORTHOVIEW
 70
           0
  9
$PUCSORGTOP
 10
0.0
 20
0.0
 30
0.0
  9
$PUCSORGBOTTOM
 10
0.0
 20
0.0
 30
0.0
  9
$PUCSORGLEFT
 10
0.0
 20
0.0
 30
0.0
  9
$PUCSORGRIGHT
 10
0.0
 20
0.0
 30
0.0
  9
$PUCSORGFRONT
 10
0.0
 20
0.0
 30
0.0
  9
$PUCSORGBACK
 10
0.0
 20
0.0
 30
0.0
  9
$USERI1
 70
           0
  9
$USERI2
 70
           0
  9
$USERI3
 70
           0
  9
$USERI4
 70
           0
  9
$USERI5
 70
           0
  9
$USERR1
 40
0.0
  9
$USERR2
 40
0.0
  9
$USERR3
 40
0.0
  9
$USERR4
 40
0.0
  9
$USERR5
 40
0.0
  9
$WORLDVIEW
 70
           1
  9
$SHADEDGE
 70
           3
  9
$SHADEDIF
 70
          70
  9
$TILEMODE
 70
           0
  9
$MAXACTVP
 70
          16
  9
$PINSBASE
 10
0.0
 20
0.0
 30
0.0
  9
$PLIMCHECK
 70
           0
  9
$PEXTMIN
 10
2.5523782072
 20
1.0332857951
 30
0.0
  9
$PEXTMAX
 10
12.6454357591
 20
9.2832857951
 30
0.0
  9
$PLIMMIN
 10
2.5523782072
 20
1.0332857951
  9
$PLIMMAX
 10
12.6454357591
 20
9.2832857951
  9
$UNITMODE
 70
           0
  9
$VISRETAIN
 70
           0
  9
$PLINEGEN
 70
           1
  9
$PSLTSCALE
 70
           1
  9
$TREEDEPTH
 70
        3020
  9
$CMLSTYLE
  2
STANDARD
  9
$CMLJUST
 70
           0
  9
$CMLSCALE
 40
1.0
  9
$PROXYGRAPHICS
 70
           0
  9
$MEASUREMENT
 70
           0
  9
$CELWEIGHT
370
           0
  9
$ENDCAPS
280
           0
  9
$JOINSTYLE
280
           0
  9
$LWDISPLAY
290
           0
  9
$INSUNITS
 70
           0
  9
$HYPERLINKBASE
  1

  9
$STYLESHEET
  1

  9
$XEDIT
290
           1
  9
$CEPSNTYPE
380
           0
  9
$PSTYLEMODE
290
           1
  9
$FINGERPRINTGUID
  2

  9
$VERSIONGUID
  2

  9
$EXTNAMES
290
           1
  9
$PSVPSCALE
 40
0.0
  0
ENDSEC
  0
SECTION
  2
CLASSES
  0
CLASS
  1
LWPOLYLINE
  2
AcDbPolyline
  3
AutoCAD 2000
 90
        0
280
           0
281
           1
  0
CLASS
  1
IMAGE
  2
AcDbRasterImage
  3
ISM
 90
    32895
280
           0
281
           1
  0
CLASS
  1
OLE2FRAME
  2
AcDbOle2Frame
  3
AutoCAD 2000
 90
    32768
280
           0
281
           1
  0
CLASS
  1
HATCH
  2
AcDbHatch
  3
AutoCAD 2000
 90
        0
280
           0
281
           1
  0
CLASS
  1
DICTIONARYVAR
  2
AcDbDictionaryVar
  3
AutoCAD 2000
 90
    32768
280
           0
281
           0
  0
CLASS
  1
RASTERVARIABLES
  2
AcDbRasterVariables
  3
ISM
 90
    32768
280
           0
281
           0
  0
CLASS
  1
IMAGEDEF
  2
AcDbRasterImageDef
  3
ISM
 90
    32768
280
           0
281
           0
  0
CLASS
  1
IMAGEDEF_REACTOR
  2
AcDbRasterImageDefReactor
  3
ISM
 90
    32769
280
           0
281
           0
  0
CLASS
  1
IDBUFFER
  2
AcDbIdBuffer
  3
AutoCAD 2000
 90
    32768
280
           0
281
           0
  0
CLASS
  1
SPATIAL_FILTER
  2
AcDbSpatialFilter
  3
AutoCAD 2000
 90
    32768
280
           0
281
           0
  0
CLASS
  1
XRECORD
  2
AcDbXrecord
  3
AutoCAD 2000
 90
    32768
280
           0
281
           0
  0
CLASS
  1
SORTENTSTABLE
  2
AcDbSortentsTable
  3
AutoCAD 2000
 90
    32768
280
           0
281
           0
  0
CLASS
  1
LAYER_INDEX
  2
AcDbLayerIndex
  3
AutoCAD 2000
 90
    32768
280
           0
281
           0
  0
CLASS
  1
SPATIAL_INDEX
  2
AcDbSpatialIndex
  3
AutoCAD 2000
 90
    32768
280
           0
281
           0
  0
CLASS
  1
OBJECT_PTR
  2
CAseDLPNTableRecord
  3
"ASE-LPNTableRecord"
 90
    32769
280
           0
281
           0
  0
CLASS
  1
LAYOUT
  2
AcDbLayout
  3
AutoCAD 2000
 90
        0
280
           0
281
           0
  0
CLASS
  1
PLOTSETTINGS
  2
AcDbPlotSettings
  3
AutoCAD 2000
 90
    32768
280
           0
281
           0
  0
CLASS
  1
ACDBDICTIONARYWDFLT
  2
AcDbDictionaryWithDefault
  3
AutoCAD 2000
 90
        0
280
           0
281
           0
  0
CLASS
  1
ACDBPLACEHOLDER
  2
AcDbPlaceHolder
  3
AutoCAD 2000
 90
        0
280
           0
281
           0
  0
ENDSEC
  0
SECTION
  2
TABLES
  0
TABLE
  2
VPORT
  5
7
100
AcDbSymbolTable
 70
           1
  0
VPORT
  5
15
100
AcDbSymbolTableRecord
100
AcDbViewportTableRecord
  2
*ACTIVE
 70
           0
 10
0.0
 20
0.0
 11
1.0
 21
1.0
 12
6.709255055375
 22
5.782715874618
 13
0.0
 23
0.0
 14
0.5
 24
0.5
 15
0.5
 25
0.5
 16
0.0
 26
0.0
 36
1.0
 17
0.0
 27
0.0
 37
0.0
 40
8.415
 41
1.277845777234
 42
50.0
 43
0.0
 44
0.0
 50
0.0
 51
0.0
 71
           0
 72
         100
 73
           1
 74
           1
 75
           0
 76
           0
 77
           0
 78
           0
281
           0
 65
           0
110
0.0
120
0.0
130
0.0
111
1.0
121
0.0
131
0.0
112
0.0
122
1.0
132
0.0
345
0
346
0
 79
           0
146
0.0
  0
ENDTAB
  0
TABLE
  2
LTYPE
  5
4
100
AcDbSymbolTable
 70
          15
  0
LTYPE
  5
11
100
AcDbSymbolTableRecord
100
AcDbLinetypeTableRecord
  2
ByBlock
 70
          64
  3

 72
          65
 73
           0
 40
0.0
  0
LTYPE
  5
12
100
AcDbSymbolTableRecord
100
AcDbLinetypeTableRecord
  2
ByLayer
 70
          64
  3

 72
          65
 73
           0
 40
0.0
  0
LTYPE
  5
13
100
AcDbSymbolTableRecord
100
AcDbLinetypeTableRecord
  2
Continuous
 70
          64
  3
Solid line
 72
          65
 73
           0
 40
0.0
  0
LTYPE
  5
24
100
AcDbSymbolTableRecord
100
AcDbLinetypeTableRecord
  2
BORDER
 70
           0
  3
BORDER
 72
          65
 73
           6
 40
1.75
 49
0.5
 74
           0
 49
-0.25
 74
           0
 49
0.5
 74
           0
 49
-0.25
 74
           0
 49
0.0
 74
           0
 49
-0.25
 74
           0
  0
LTYPE
  5
25
100
AcDbSymbolTableRecord
100
AcDbLinetypeTableRecord
  2
CENTER
 70
           0
  3
CENTER
 72
          65
 73
           4
 40
2.0
 49
1.25
 74
           0
 49
-0.25
 74
           0
 49
0.25
 74
           0
 49
-0.25
 74
           0
  0
LTYPE
  5
26
100
AcDbSymbolTableRecord
100
AcDbLinetypeTableRecord
  2
DASHDOT
 70
           0
  3
DASHDOT
 72
          65
 73
           4
 40
1.0
 49
0.5
 74
           0
 49
-0.25
 74
           0
 49
0.0
 74
           0
 49
-0.25
 74
           0
  0
LTYPE
  5
27
100
AcDbSymbolTableRecord
100
AcDbLinetypeTableRecord
  2
DASHED
 70
           0
  3
DASHED
 72
          65
 73
           2
 40
0.75
 49
0.5
 74
           0
 49
-0.25
 74
           0
  0
LTYPE
  5
28
100
AcDbSymbolTableRecord
100
AcDbLinetypeTableRecord
  2
DIVIDE
 70
           0
  3
DIVIDE
 72
          65
 73
           6
 40
1.25
 49
0.5
 74
           0
 49
-0.25
 74
           0
 49
0.0
 74
           0
 49
-0.25
 74
           0
 49
0.0
 74
           0
 49
-0.25
 74
           0
  0
LTYPE
  5
29
100
AcDbSymbolTableRecord
100
AcDbLinetypeTableRecord
  2
DOT
 70
           0
  3
DOT
 72
          65
 73
           2
 40
0.25
 49
0.0
 74
           0
 49
-0.25
 74
           0
  0
LTYPE
  5
2A
100
AcDbSymbolTableRecord
100
AcDbLinetypeTableRecord
  2
HIDDEN
 70
           0
  3
HIDDEN
 72
          65
 73
           2
 40
0.375
 49
0.25
 74
           0
 49
-0.125
 74
           0
  0
LTYPE
  5
2B
100
AcDbSymbolTableRecord
100
AcDbLinetypeTableRecord
  2
PHANTOM
 70
           0
  3
PHANTOM
 72
          65
 73
           6
 40
2.5
 49
1.25
 74
           0
 49
-0.25
 74
           0
 49
0.25
 74
           0
 49
-0.25
 74
           0
 49
0.25
 74
           0
 49
-0.25
 74
           0
  0
LTYPE
  5
2C
100
AcDbSymbolTableRecord
100
AcDbLinetypeTableRecord
  2
$INVISIBLE
 70
           0
  3
$INVISIBLE
 72
          65
 73
           2
 40
200.0
 49
-100.0
 74
           0
 49
-100.0
 74
           0
  0
LTYPE
  5
2D
100
AcDbSymbolTableRecord
100
AcDbLinetypeTableRecord
  2
$SNAPEXT
 70
           0
  3
$SNAPEXT
 72
          65
 73
           2
 40
0.04
 49
0.02
 74
           0
 49
-0.02
 74
           0
  0
LTYPE
  5
2E
100
AcDbSymbolTableRecord
100
AcDbLinetypeTableRecord
  2
$CONSTRUCTION
 70
           0
  3
$CONSTRUCTION
 72
          65
 73
           4
 40
0.3
 49
0.2
 74
           0
 49
-0.05
 74
           0
 49
0.0
 74
           0
 49
-0.05
 74
           0
  0
LTYPE
  5
2F
100
AcDbSymbolTableRecord
100
AcDbLinetypeTableRecord
  2
$AUXILIARY
 70
           0
  3
$AUXILIARY
 72
          65
 73
           2
 40
0.1
 49
0.05
 74
           0
 49
-0.05
 74
           0
  0
ENDTAB
  0
TABLE
  2
LAYER
  5
2
100
AcDbSymbolTable
 70
           6
  0
LAYER
  5
14
100
AcDbSymbolTableRecord
100
AcDbLayerTableRecord
  2
0
 70
           0
 62
           7
  6
Continuous
290
           1
370
           0
390
0
1001
TCAD
1000
TCW_LAYER_ORDER
1002
{
1071
        0
1002
}
  0
LAYER
  5
30
100
AcDbSymbolTableRecord
100
AcDbLayerTableRecord
  2
$CONSTRUCTION
 70
           0
 62
           9
  6
$CONSTRUCTION
290
           1
370
           0
390
0
1001
TCAD
1000
TCW_LAYER_ORDER
1002
{
1071
        0
1002
}
  0
LAYER
  5
31
100
AcDbSymbolTableRecord
100
AcDbLayerTableRecord
  2
LAYER_1
 70
           0
 62
           7
  6
Continuous
290
           1
370
           0
390
0
1001
TCAD
1000
TCW_LAYER_ORDER
1002
{
1071
        0
1002
}
  0
LAYER
  5
32
100
AcDbSymbolTableRecord
100
AcDbLayerTableRecord
  2
LAYER_2
 70
           0
 62
           7
  6
Continuous
290
           1
370
           0
390
0
1001
TCAD
1000
TCW_LAYER_ORDER
1002
{
1071
        0
1002
}
  0
LAYER
  5
33
100
AcDbSymbolTableRecord
100
AcDbLayerTableRecord
  2
7
 70
           0
 62
           7
  6
Continuous
290
           1
370
           0
390
0
1001
TCAD
1000
TCW_LAYER_ORDER
1002
{
1071
        0
1002
}
  0
LAYER
  5
34
100
AcDbSymbolTableRecord
100
AcDbLayerTableRecord
  2
image
 70
           0
 62
           7
  6
Continuous
290
           1
370
           0
390
0
1001
TCAD
1000
TCW_LAYER_ORDER
1002
{
1071
        0
1002
}
  0
ENDTAB
  0
TABLE
  2
STYLE
  5
3
100
AcDbSymbolTable
 70
           5
  0
STYLE
  5
17
100
AcDbSymbolTableRecord
100
AcDbTextStyleTableRecord
  2
STANDARD
 70
           0
 40
0.0
 41
1.0
 50
0.0
 71
           0
 42
0.20000000298
  3
ARIAL.TTF
  4

1001
ACAD
1000
Arial
1071
       34
  0
STYLE
  5
36
100
AcDbSymbolTableRecord
100
AcDbTextStyleTableRecord
  2
Annotative
 70
           0
 40
0.0
 41
1.0
 50
0.0
 71
           0
 42
0.20000000298
  3
TXT.SHX
  4

  0
STYLE
  5
37
100
AcDbSymbolTableRecord
100
AcDbTextStyleTableRecord
  2
_TCW_TXTSTY_1
 70
           0
 40
0.0
 41
1.0
 50
0.0
 71
           0
 42
0.600000023842
  3
TIMES.TTF
  4

1001
ACAD
1000
Times New Roman
1071
      290
  0
STYLE
  5
6A
100
AcDbSymbolTableRecord
100
AcDbTextStyleTableRecord
  2
_TCW_TXTSTY_2
 70
           0
 40
0.0
 41
1.0
 50
0.0
 71
           0
 42
0.058333333582
  3

  4

1001
ACAD
1000
AvantGarde Bk BT
1071
 16777506
  0
STYLE
  5
6D
100
AcDbSymbolTableRecord
100
AcDbTextStyleTableRecord
  2
_TCW_TXTSTY_3
 70
           0
 40
0.0
 41
1.22000002861
 50
0.0
 71
           0
 42
0.08749999851
  3
TIMES.TTF
  4

1001
ACAD
1000
Times New Roman
1071
      290
  0
ENDTAB
  0
TABLE
  2
VIEW
  5
5
100
AcDbSymbolTable
 70
           1
  0
VIEW
  5
35
100
AcDbSymbolTableRecord
100
AcDbViewTableRecord
  2
View_0
 70
           0
 40
8.267716535433
 10
5.846456692913
 20
4.133858267717
 41
11.692913385827
 11
0.0
 21
0.0
 31
1.0
 12
0.0
 22
0.0
 32
0.0
 42
92.090489446729
 43
0.0
 44
0.0
 50
0.0
 71
           0
281
           0
 72
           0
110
0.0
120
0.0
130
0.0
111
1.0
121
0.0
131
0.0
112
0.0
122
1.0
132
0.0
  0
ENDTAB
  0
TABLE
  2
UCS
  5
6
100
AcDbSymbolTable
 70
           0
  0
ENDTAB
  0
TABLE
  2
APPID
  5
8
100
AcDbSymbolTable
 70
           2
  0
APPID
  5
16
100
AcDbSymbolTableRecord
100
AcDbRegAppTableRecord
  2
ACAD
 70
           0
  0
APPID
  5
23
100
AcDbSymbolTableRecord
100
AcDbRegAppTableRecord
  2
TCAD
 70
           0
  0
ENDTAB
  0
TABLE
  2
DIMSTYLE
  5
9
100
AcDbSymbolTable
 70
           2
100
AcDbDimStyleTable
 71
           0
  0
DIMSTYLE
105
18
100
AcDbSymbolTableRecord
100
AcDbDimStyleTableRecord
  2
STANDARD
 70
           0
  3
<>
  4
<>
 40
1.0
 41
0.18
 42
0.0625
 43
0.38
 44
0.18
 45
0.0000001
 46
0.0
 47
0.0
 48
0.0
 71
           0
 72
           0
 73
           1
 74
           1
 75
           0
 76
           0
 77
           0
 78
           0
 79
           0
140
0.1
141
0.09
142
0.0
143
25.4
144
1.0
145
0.0
146
1.0
147
0.09
148
0.01
170
           0
171
           2
172
           0
173
           0
174
           0
175
           0
176
           0
177
           0
178
           0
179
           4
271
           4
272
           4
273
           2
274
           2
275
           0
276
           0
277
           2
278
          46
279
           0
280
           0
281
           0
282
           0
283
           1
284
           0
285
           0
286
           0
288
           0
340
37
341
0
342
0
343
0
344
0
371
          -2
372
          -2
  0
DIMSTYLE
105
38
100
AcDbSymbolTableRecord
100
AcDbDimStyleTableRecord
  2
Annotative
 70
           0
  3
<>
  4
<>
 40
1.0
 41
0.18
 42
0.0625
 43
0.38
 44
0.18
 45
0.0000001
 46
0.0
 47
0.0
 48
0.0
 71
           0
 72
           0
 73
           1
 74
           1
 75
           0
 76
           0
 77
           0
 78
           0
 79
           0
140
0.18
141
0.09
142
0.0
143
25.4
144
1.0
145
0.0
146
1.0
147
0.09
148
0.0000001
170
           0
171
           2
172
           0
173
           0
174
           0
175
           0
176
           0
177
           0
178
           0
179
           4
271
           4
272
           4
273
           2
274
           2
275
           0
276
           0
277
           2
278
          46
279
           0
280
           0
281
           0
282
           0
283
           1
284
           0
285
           0
286
           0
288
           0
340
36
341
0
342
0
343
0
344
0
371
          -2
372
          -2
  0
ENDTAB
  0
TABLE
  2
BLOCK_RECORD
  5
1
100
AcDbSymbolTable
 70
           3
  0
BLOCK_RECORD
  5
A
100
AcDbSymbolTableRecord
100
AcDbBlockTableRecord
  2
*MODEL_SPACE
340
39
  0
BLOCK_RECORD
  5
B
100
AcDbSymbolTableRecord
100
AcDbBlockTableRecord
  2
*PAPER_SPACE
340
70
  0
BLOCK_RECORD
  5
3C
100
AcDbSymbolTableRecord
100
AcDbBlockTableRecord
  2
*D0
340
0
  0
BLOCK_RECORD
  5
4C
100
AcDbSymbolTableRecord
100
AcDbBlockTableRecord
  2
*D1
340
0
  0
BLOCK_RECORD
  5
5B
100
AcDbSymbolTableRecord
100
AcDbBlockTableRecord
  2
*D2
340
0
  0
ENDTAB
  0
ENDSEC
  0
SECTION
  2
BLOCKS
  0
BLOCK
  5
D
100
AcDbEntity
  8
0
100
AcDbBlockBegin
  2
*MODEL_SPACE
 70
           0
 10
0.0
 20
0.0
 30
0.0
  3
*MODEL_SPACE
  1

  0
ENDBLK
  5
E
100
AcDbEntity
  8
0
100
AcDbBlockEnd
  0
BLOCK
  5
F
100
AcDbEntity
 67
           1
  8
0
100
AcDbBlockBegin
  2
*PAPER_SPACE
 70
           0
 10
0.0
 20
0.0
 30
0.0
  3
*PAPER_SPACE
  1

  0
ENDBLK
  5
10
100
AcDbEntity
 67
           1
  8
0
100
AcDbBlockEnd
  0
BLOCK
  5
3D
100
AcDbEntity
  8
0
100
AcDbBlockBegin
  2
*D0
 70
           1
 10
0.0
 20
0.0
 30
0.0
  3
*D0
  1

  0
LINE
  5
3E
100
AcDbEntity
  8
0
370
           0
  6
Continuous
 62
           0
100
AcDbLine
 10
5.820826933865
 20
5.616727043198
 30
0.0
 11
5.072876755484
 21
5.616727043198
 31
0.0
1001
TCAD
1000
TCW_ATTRIBUTE
1002
{
1000
<5/16">
1002
}
  0
LINE
  5
3F
100
AcDbEntity
  8
0
370
           0
  6
Continuous
 62
           0
100
AcDbLine
 10
5.86061529734
 20
5.929227043198
 30
0.0
 11
5.072876755484
 21
5.929227043198
 31
0.0
1001
TCAD
1000
TCW_ATTRIBUTE
1002
{
1000
<5/16">
1002
}
  0
LWPOLYLINE
  5
40
100
AcDbEntity
  8
0
370
           0
  6
Continuous
 62
           0
100
AcDbPolyline
 90
        2
 70
           0
 38
0.0
 10
5.252876755484
 20
5.256727043198
 10
5.252876755484
 20
5.436727043198
1001
TCAD
1000
TCW_ATTRIBUTE
1002
{
1000
<5/16">
1002
}
  0
LWPOLYLINE
  5
41
100
AcDbEntity
  8
0
370
           0
  6
Continuous
 62
           0
100
AcDbPolyline
 90
        2
 70
           0
 38
0.0
 10
5.252876755484
 20
5.436727043198
 40
0.0
 41
0.0
 10
5.252876755484
 20
5.436727043198
 40
0.0
 41
0.0
1001
TCAD
1000
TCW_ATTRIBUTE
1002
{
1000
<5/16">
1002
}
  0
LWPOLYLINE
  5
42
100
AcDbEntity
  8
0
370
           0
  6
Continuous
 62
           0
100
AcDbPolyline
 90
        4
 70
           0
 38
0.0
 10
5.432876755484
 20
6.289227043198
 10
5.252876755484
 20
6.289227043198
 10
5.252876755484
 20
6.109227043198
 10
5.252876755484
 20
6.109227043198
1001
TCAD
1000
TCW_ATTRIBUTE
1002
{
1000
<5/16">
1002
}
  0
LWPOLYLINE
  5
45
100
AcDbEntity
  8
0
370
           0
  6
Continuous
 62
           0
100
AcDbPolyline
 90
        4
 70
           0
 38
0.0
 10
5.252876755484
 20
5.929227043198
 40
0.0
 41
0.0
 10
5.276276755484
 20
6.109227043198
 40
0.0
 41
0.0
 10
5.229476755484
 20
6.109227043198
 40
0.0
 41
0.0
 10
5.252876755484
 20
5.929227043198
 40
0.0
 41
0.0
1001
TCAD
1000
TCW_ATTRIBUTE
1002
{
1000
<5/16">
1002
}
  0
HATCH
  5
43
100
AcDbEntity
  8
0
  6
Continuous
 62
           0
100
AcDbHatch
 10
0.0
 20
0.0
 30
0.0
210
0.0
220
0.0
230
1.0
  2
SOLID
 70
           1
 71
           1
 91
        1
 92
        3
 72
           0
 73
           1
 93
        3
 10
5.2528767554842091
 20
5.9292270431979075
 10
5.2762767554842087
 20
6.1092270431979072
 10
5.2294767554842094
 20
6.1092270431979072
 97
        1
330
44
 75
           0
 76
           0
 98
        0
1001
TCAD
1000
TCW_ATTRIBUTE
1002
{
1000
<5/16">
1002
}
  0
LWPOLYLINE
  5
48
100
AcDbEntity
  8
0
370
           0
  6
Continuous
 62
           0
100
AcDbPolyline
 90
        4
 70
           0
 38
0.0
 10
5.252876755484
 20
5.616727043198
 40
0.0
 41
0.0
 10
5.229476755484
 20
5.436727043198
 40
0.0
 41
0.0
 10
5.276276755484
 20
5.436727043198
 40
0.0
 41
0.0
 10
5.252876755484
 20
5.616727043198
 40
0.0
 41
0.0
1001
TCAD
1000
TCW_ATTRIBUTE
1002
{
1000
<5/16">
1002
}
  0
HATCH
  5
46
100
AcDbEntity
  8
0
  6
Continuous
 62
           0
100
AcDbHatch
 10
0.0
 20
0.0
 30
0.0
210
0.0
220
0.0
230
1.0
  2
SOLID
 70
           1
 71
           1
 91
        1
 92
        3
 72
           0
 73
           1
 93
        3
 10
5.2528767554842091
 20
5.6167270431979075
 10
5.2294767554842094
 20
5.4367270431979078
 10
5.2762767554842087
 20
5.4367270431979078
 97
        1
330
47
 75
           0
 76
           0
 98
        0
1001
TCAD
1000
TCW_ATTRIBUTE
1002
{
1000
<5/16">
1002
}
  0
MTEXT
  5
49
100
AcDbEntity
  8
0
  6
Continuous
 62
           0
100
AcDbMText
 10
5.687375584608
 20
6.289227043198
 30
0.0
 40
0.10000000298
 41
0.0
 71
           5
 72
           1
  1
\A1;5/16"{}
  7
_TCW_TXTSTY_1
 73
           1
 44
1.0
1001
TCAD
1000
TCW_REFPOINT
1002
{
1010
5.687375584608
1020
6.289227043198
1030
0.0
1002
}
1000
TCW_ATTRIBUTE
1002
{
1000
<5/16">
1002
}
  0
ENDBLK
  5
4A
100
AcDbEntity
  8
0
100
AcDbBlockEnd
  0
BLOCK
  5
4D
100
AcDbEntity
  8
0
100
AcDbBlockBegin
  2
*D1
 70
           1
 10
0.0
 20
0.0
 30
0.0
  3
*D1
  1

  0
LINE
  5
4E
100
AcDbEntity
  8
0
370
           0
  6
Continuous
 62
           0
100
AcDbLine
 10
5.95942160496
 20
5.906085661988
 30
0.0
 11
5.95942160496
 21
6.710018046716
 31
0.0
1001
TCAD
1000
TCW_ATTRIBUTE
1002
{
1000
<3 1/4">
1002
}
  0
LINE
  5
4F
100
AcDbEntity
  8
0
370
           0
  6
Continuous
 62
           0
100
AcDbLine
 10
9.225630821887
 20
5.87691668819
 30
0.0
 11
9.225630821887
 21
6.710018046716
 31
0.0
1001
TCAD
1000
TCW_ATTRIBUTE
1002
{
1000
<3 1/4">
1002
}
  0
LWPOLYLINE
  5
50
100
AcDbEntity
  8
0
370
           0
  6
Continuous
 62
           0
100
AcDbPolyline
 90
        4
 70
           0
 10
6.13942160496
 20
6.530018046716
 10
6.13942160496
 20
6.530018046716
 10
6.13942160496
 20
6.530018046716
 10
7.319214920482
 20
6.530018046716
1001
TCAD
1000
TCW_ATTRIBUTE
1002
{
1000
<3 1/4">
1002
}
  0
LWPOLYLINE
  5
51
100
AcDbEntity
  8
0
370
           0
  6
Continuous
 62
           0
100
AcDbPolyline
 90
        4
 70
           0
 10
9.045630821887
 20
6.530018046716
 10
9.045630821887
 20
6.530018046716
 10
9.045630821887
 20
6.530018046716
 10
7.865837506364
 20
6.530018046716
1001
TCAD
1000
TCW_ATTRIBUTE
1002
{
1000
<3 1/4">
1002
}
  0
LWPOLYLINE
  5
54
100
AcDbEntity
  8
0
370
           0
  6
Continuous
 62
           0
100
AcDbPolyline
 90
        4
 70
           0
 10
5.95942160496
 20
6.530018046716
 40
0.0
 41
0.0
 10
6.13942160496
 20
6.506618046716
 40
0.0
 41
0.0
 10
6.13942160496
 20
6.553418046716
 40
0.0
 41
0.0
 10
5.95942160496
 20
6.530018046716
 40
0.0
 41
0.0
1001
TCAD
1000
TCW_ATTRIBUTE
1002
{
1000
<3 1/4">
1002
}
  0
HATCH
  5
52
100
AcDbEntity
  8
0
  6
Continuous
 62
           0
100
AcDbHatch
 10
0.0
 20
0.0
 30
0.0
210
0.0
220
0.0
230
1.0
  2
SOLID
 70
           1
 71
           1
 91
        1
 92
        3
 72
           0
 73
           1
 93
        3
 10
5.959421604959581
 20
6.5300180467164077
 10
6.1394216049595807
 20
6.5066180467164081
 10
6.1394216049595807
 20
6.5534180467164074
 97
        1
330
53
 75
           0
 76
           0
 98
        0
1001
TCAD
1000
TCW_ATTRIBUTE
1002
{
1000
<3 1/4">
1002
}
  0
LWPOLYLINE
  5
57
100
AcDbEntity
  8
0
370
           0
  6
Continuous
 62
           0
100
AcDbPolyline
 90
        4
 70
           0
 10
9.225630821887
 20
6.530018046716
 40
0.0
 41
0.0
 10
9.045630821887
 20
6.553418046716
 40
0.0
 41
0.0
 10
9.045630821887
 20
6.506618046716
 40
0.0
 41
0.0
 10
9.225630821887
 20
6.530018046716
 40
0.0
 41
0.0
1001
TCAD
1000
TCW_ATTRIBUTE
1002
{
1000
<3 1/4">
1002
}
  0
HATCH
  5
55
100
AcDbEntity
  8
0
  6
Continuous
 62
           0
100
AcDbHatch
 10
0.0
 20
0.0
 30
0.0
210
0.0
220
0.0
230
1.0
  2
SOLID
 70
           1
 71
           1
 91
        1
 92
        3
 72
           0
 73
           1
 93
        3
 10
9.2256308218868881
 20
6.5300180467164077
 10
9.0456308218868884
 20
6.5534180467164074
 10
9.0456308218868884
 20
6.5066180467164081
 97
        1
330
56
 75
           0
 76
           0
 98
        0
1001
TCAD
1000
TCW_ATTRIBUTE
1002
{
1000
<3 1/4">
1002
}
  0
MTEXT
  5
58
100
AcDbEntity
  8
0
  6
Continuous
 62
           0
100
AcDbMText
 10
7.592526213423
 20
6.530018046716
 30
0.0
 40
0.10000000298
 41
0.0
 71
           5
 72
           1
  1
\A1;3 1/4"{}
  7
_TCW_TXTSTY_1
 73
           1
 44
1.0
1001
TCAD
1000
TCW_REFPOINT
1002
{
1010
7.592526213423
1020
6.530018046716
1030
0.0
1002
}
1000
TCW_ATTRIBUTE
1002
{
1000
<3 1/4">
1002
}
  0
ENDBLK
  5
59
100
AcDbEntity
  8
0
100
AcDbBlockEnd
  0
BLOCK
  5
5C
100
AcDbEntity
  8
0
100
AcDbBlockBegin
  2
*D2
 70
           1
 10
0.0
 20
0.0
 30
0.0
  3
*D2
  1

  0
LINE
  5
5D
100
AcDbEntity
  8
0
370
           0
  6
Continuous
 62
           0
100
AcDbLine
 10
5.95942160496
 20
5.618175574168
 30
0.0
 11
5.95942160496
 21
5.164244637655
 31
0.0
1001
TCAD
1000
TCW_ATTRIBUTE
1002
{
1000
<3 3/8">
1002
}
  0
LINE
  5
5E
100
AcDbEntity
  8
0
370
           0
  6
Continuous
 62
           0
100
AcDbLine
 10
9.33442160496
 20
5.675747731394
 30
0.0
 11
9.33442160496
 21
5.164244637655
 31
0.0
1001
TCAD
1000
TCW_ATTRIBUTE
1002
{
1000
<3 3/8">
1002
}
  0
LWPOLYLINE
  5
5F
100
AcDbEntity
  8
0
370
           0
  6
Continuous
 62
           0
100
AcDbPolyline
 90
        4
 70
           0
 10
6.13942160496
 20
5.344244637655
 10
6.13942160496
 20
5.344244637655
 10
6.13942160496
 20
5.344244637655
 10
7.373610312019
 20
5.344244637655
1001
TCAD
1000
TCW_ATTRIBUTE
1002
{
1000
<3 3/8">
1002
}
  0
LWPOLYLINE
  5
60
100
AcDbEntity
  8
0
370
           0
  6
Continuous
 62
           0
100
AcDbPolyline
 90
        4
 70
           0
 10
9.15442160496
 20
5.344244637655
 10
9.15442160496
 20
5.344244637655
 10
9.15442160496
 20
5.344244637655
 10
7.920232897901
 20
5.344244637655
1001
TCAD
1000
TCW_ATTRIBUTE
1002
{
1000
<3 3/8">
1002
}
  0
LWPOLYLINE
  5
63
100
AcDbEntity
  8
0
370
           0
  6
Continuous
 62
           0
100
AcDbPolyline
 90
        4
 70
           0
 10
5.95942160496
 20
5.344244637655
 40
0.0
 41
0.0
 10
6.13942160496
 20
5.320844637655
 40
0.0
 41
0.0
 10
6.13942160496
 20
5.367644637655
 40
0.0
 41
0.0
 10
5.95942160496
 20
5.344244637655
 40
0.0
 41
0.0
1001
TCAD
1000
TCW_ATTRIBUTE
1002
{
1000
<3 3/8">
1002
}
  0
HATCH
  5
61
100
AcDbEntity
  8
0
  6
Continuous
 62
           0
100
AcDbHatch
 10
0.0
 20
0.0
 30
0.0
210
0.0
220
0.0
230
1.0
  2
SOLID
 70
           1
 71
           1
 91
        1
 92
        3
 72
           0
 73
           1
 93
        3
 10
5.9594216049595818
 20
5.34424463765545
 10
6.1394216049595816
 20
5.3208446376554503
 10
6.1394216049595816
 20
5.3676446376554496
 97
        1
330
62
 75
           0
 76
           0
 98
        0
1001
TCAD
1000
TCW_ATTRIBUTE
1002
{
1000
<3 3/8">
1002
}
  0
LWPOLYLINE
  5
66
100
AcDbEntity
  8
0
370
           0
  6
Continuous
 62
           0
100
AcDbPolyline
 90
        4
 70
           0
 10
9.33442160496
 20
5.344244637655
 40
0.0
 41
0.0
 10
9.15442160496
 20
5.367644637655
 40
0.0
 41
0.0
 10
9.15442160496
 20
5.320844637655
 40
0.0
 41
0.0
 10
9.33442160496
 20
5.344244637655
 40
0.0
 41
0.0
1001
TCAD
1000
TCW_ATTRIBUTE
1002
{
1000
<3 3/8">
1002
}
  0
HATCH
  5
64
100
AcDbEntity
  8
0
  6
Continuous
 62
           0
100
AcDbHatch
 10
0.0
 20
0.0
 30
0.0
210
0.0
220
0.0
230
1.0
  2
SOLID
 70
           1
 71
           1
 91
        1
 92
        3
 72
           0
 73
           1
 93
        3
 10
9.3344216049595801
 20
5.34424463765545
 10
9.1544216049595803
 20
5.3676446376554496
 10
9.1544216049595803
 20
5.3208446376554503
 97
        1
330
65
 75
           0
 76
           0
 98
        0
1001
TCAD
1000
TCW_ATTRIBUTE
1002
{
1000
<3 3/8">
1002
}
  0
MTEXT
  5
67
100
AcDbEntity
  8
0
  6
Continuous
 62
           0
100
AcDbMText
 10
7.64692160496
 20
5.344244637655
 30
0.0
 40
0.10000000298
 41
0.0
 71
           5
 72
           1
  1
\A1;3 3/8"{}
  7
_TCW_TXTSTY_1
 73
           1
 44
1.0
1001
TCAD
1000
TCW_REFPOINT
1002
{
1010
7.64692160496
1020
5.344244637655
1030
0.0
1002
}
1000
TCW_ATTRIBUTE
1002
{
1000
<3 3/8">
1002
}
  0
ENDBLK
  5
68
100
AcDbEntity
  8
0
100
AcDbBlockEnd
  0
ENDSEC
  0
SECTION
  2
ENTITIES
  0
VIEWPORT
  5
3A
100
AcDbEntity
 67
           1
  8
0
100
AcDbViewport
 10
6.7092550554
 20
5.7827158746
 30
0.0
 40
10.7530722154
 41
8.415
 68
           1
 69
           1
 12
6.7092550554
 22
5.7827158746
 13
0.0
 23
0.0
 14
0.5
 24
0.5
 15
0.5
 25
0.5
 16
0.0
 26
0.0
 36
1.0
 17
0.0
 27
0.0
 37
0.0
 42
50.0
 43
0.0
 44
0.0
 45
8.415
 50
0.0
 51
0.0
 72
         100
 90
    32800
340
0
  1

281
           0
 71
           0
 74
           1
110
0.0
120
0.0
130
0.0
111
1.0
121
0.0
131
0.0
112
0.0
122
1.0
132
0.0
345
0
346
0
 79
           0
146
0.0
  0
LWPOLYLINE
  5
3B
100
AcDbEntity
 67
           1
  8
0
 62
           7
100
AcDbPolyline
 90
       20
 70
           0
 10
8.953534194961
 20
5.71805776928
 10
8.852203468879
 20
5.616727043198
 10
6.02337013593
 20
5.616727043198
 10
5.95942160496
 20
5.680675574168
 10
5.95942160496
 20
5.724587838009
 10
6.17896719082
 20
5.724587838009
 10
6.17896719082
 20
5.822150085053
 10
5.95942160496
 20
5.822150085053
 10
5.95942160496
 20
5.843585661988
 10
6.04506298617
 20
5.929227043198
 10
7.475020976553
 20
5.929227043198
 10
7.5823799862
 20
5.821868033551
 10
7.689738995847
 20
5.929227043198
 10
9.110820466879
 20
5.929227043198
 10
9.225630821887
 20
5.81441668819
 10
9.33442160496
 20
5.81441668819
 10
9.33442160496
 20
5.738247731394
 10
9.225630821887
 20
5.738247731394
 10
9.225630821887
 20
5.710675224438
 42
-0.557817752231
 10
8.953454280169
 20
5.718195415055
  0
DIMENSION
  5
4B
100
AcDbEntity
 67
           1
  8
0
  6
Continuous
 62
           0
100
AcDbDimension
  2
*D0
 10
5.252876755484
 20
5.929227043198
 30
0.0
 11
5.687375584608
 21
6.289227043198
 31
0.0
 71
           5
 72
           1
 41
1.0
 42
0.0
  1
<5/16">
  3
STANDARD
100
AcDbAlignedDimension
 13
5.883326933865
 23
5.616727043198
 33
0.0
 14
5.92311529734
 24
5.929227043198
 34
0.0
 50
-90.0
100
AcDbRotatedDimension
1001
TCAD
1000
TCW_CUSTOM_DATA
1002
{
1000
#$AUX@_ToolInfo Properties
1070
           8
1000
Insert^JDimension^JOrthogonal@Dimension Orthogonal
1002
}
1001
ACAD
1000
DSTYLE
1002
{
1070
           3
1000
<>"
1070
         270
1070
           4
1002
}
  0
DIMENSION
  5
5A
100
AcDbEntity
 67
           1
  8
0
  6
Continuous
 62
           0
100
AcDbDimension
  2
*D1
 10
9.225630821887
 20
6.530018046716
 30
0.0
 11
7.592526213423
 21
6.530018046716
 31
0.0
 71
           5
 72
           1
 41
1.0
 42
0.0
  1
<3 1/4">
  3
STANDARD
100
AcDbAlignedDimension
 13
5.95942160496
 23
5.843585661988
 33
0.0
 14
9.225630821887
 24
5.81441668819
 34
0.0
100
AcDbRotatedDimension
1001
TCAD
1000
TCW_CUSTOM_DATA
1002
{
1000
#$AUX@_ToolInfo Properties
1070
           8
1000
Insert^JDimension^JOrthogonal@Dimension Orthogonal
1002
}
1001
ACAD
1000
DSTYLE
1002
{
1070
           3
1000
<>"
1070
         270
1070
           4
1002
}
  0
DIMENSION
  5
69
100
AcDbEntity
 67
           1
  8
0
  6
Continuous
 62
           0
100
AcDbDimension
  2
*D2
 10
9.33442160496
 20
5.344244637655
 30
0.0
 11
7.64692160496
 21
5.344244637655
 31
0.0
 71
           5
 72
           1
 41
1.0
 42
0.0
  1
<3 3/8">
  3
STANDARD
100
AcDbAlignedDimension
 13
5.95942160496
 23
5.680675574168
 33
0.0
 14
9.33442160496
 24
5.738247731394
 34
0.0
100
AcDbRotatedDimension
1001
TCAD
1000
TCW_CUSTOM_DATA
1002
{
1000
#$AUX@_ToolInfo Properties
1070
           8
1000
Insert^JDimension^JOrthogonal@Dimension Orthogonal
1002
}
1001
ACAD
1000
DSTYLE
1002
{
1070
           3
1000
<>"
1070
         270
1070
           4
1002
}
  0
TEXT
  5
6B
100
AcDbEntity
 67
           1
  8
0
  6
Continuous
 62
           7
100
AcDbText
 10
6.505388370331
 20
5.678148656328
 30
0.0
 40
0.058333334327
  1
© 2007 The Premium Series
  7
_TCW_TXTSTY_2
 11
6.505388370331
 21
5.736481990655
 31
0.0
100
AcDbText
 73
           3
1001
TCAD
1000
TCW40_TEXT
1002
{
1000
AvantGarde Bk BT
1070
           1
1070
         257
1002
}
  0
TEXT
  5
6C
100
AcDbEntity
 67
           1
  8
0
  6
Continuous
 62
           7
100
AcDbText
 10
6.920203728112
 20
4.651060169472
 30
0.0
 40
0.133333003521
  1
#7721
  7
_TCW_TXTSTY_1
 11
6.920203728112
 21
4.784393172993
 31
0.0
100
AcDbText
 73
           3
1001
TCAD
1000
TCW40_TEXT
1002
{
1000
Times New Roman
1070
           0
1070
         257
1002
}
  0
MTEXT
  5
6E
100
AcDbEntity
 67
           1
  8
0
  6
Continuous
 62
           7
100
AcDbMText
 10
6.920203728112
 20
4.404905838667
 30
0.0
 40
0.08749999702
 41
1.350353
 71
           1
 72
           1
  1
{Saroyan Lumber Co.\P(800) 624-9309}
  7
_TCW_TXTSTY_3
 73
           1
 44
1.0
1001
TCAD
1000
TCW_REFPOINT
1002
{
1010
6.920203728112
1020
4.404905838667
1030
0.0
1002
}
1000
TCW40_TEXT
1002
{
1000
Times New Roman
1070
           0
1070
         257
1002
}
  0
TEXT
  5
6F
100
AcDbEntity
 67
           1
  8
0
  6
Continuous
 62
           7
100
AcDbText
 10
6.919911728112
 20
4.470306170013
 30
0.0
 40
0.10000000298
  1
5/16 x 3-3/8
  7
_TCW_TXTSTY_1
 11
6.919911728112
 21
4.570306172993
 31
0.0
100
AcDbText
 73
           3
1001
TCAD
1000
TCW_REFPOINT
1002
{
1010
6.919911728112
1020
4.603639172993
1030
0.0
1002
}
1000
TCW40_TEXT
1002
{
1000
Times New Roman
1070
           0
1070
         257
1002
}
  0
ENDSEC
  0
SECTION
  2
OBJECTS
  0
DICTIONARY
  5
19
100
AcDbDictionary
280
           0
281
           1
  3
ACAD_GROUP
350
1A
  3
ACAD_MLINESTYLE
350
1B
  3
ACAD_LAYOUT
350
1E
  3
ACAD_PLOTSETTINGS
350
22
  3
ACAD_PLOTSTYLENAME
350
1F
  0
DICTIONARY
  5
1A
102
{ACAD_REACTORS
330
19
102
}
100
AcDbDictionary
280
           0
281
           1
  0
DICTIONARY
  5
1B
102
{ACAD_REACTORS
330
19
102
}
100
AcDbDictionary
280
           0
281
           1
  3
Standard
350
1C
  0
MLINESTYLE
  5
1C
100
AcDbMlineStyle
  2
STANDARD
 70
           0
  3

 62
         256
 51
90.0
 52
90.0
 71
           2
 49
0.5
 62
         256
  6
ByLayer
 49
-0.5
 62
         256
  6
ByLayer
  0
ACDBDICTIONARYWDFLT
  5
1F
102
{ACAD_REACTORS
330
19
102
}
100
AcDbDictionary
281
           1
  3
Normal
350
1D
100
AcDbDictionaryWithDefault
340
1D
  0
ACDBPLACEHOLDER
  5
1D
102
{ACAD_REACTORS
330
1F
102
}
  0
LAYOUT
  5
21
102
{ACAD_REACTORS
330
1E
102
}
100
AcDbPlotSettings
  1

  2

  4

  6

 40
0.0
 41
0.0
 42
0.0
 43
0.0
 44
0.0
 45
0.0
 46
0.0
 47
0.0
 48
0.0
 49
0.0
140
0.0
141
0.0
142
1.0
143
1.0
 70
           0
 72
           0
 73
           0
 74
           0
  7

 75
           0
147
1.0
148
0.0
149
0.0
100
AcDbLayout
  1
Layout1
 70
           0
 71
           0
 10
0.0
 20
0.0
 11
0.0
 21
0.0
 12
0.0
 22
0.0
 32
0.0
 14
0.0
 24
0.0
 34
0.0
 15
0.0
 25
0.0
 35
0.0
146
0.0
 13
0.0
 23
0.0
 33
0.0
 16
0.0
 26
0.0
 36
0.0
 17
0.0
 27
0.0
 37
0.0
 76
           0
330
B
331
0
345
0
346
0
  0
DICTIONARY
  5
1E
102
{ACAD_REACTORS
330
19
102
}
100
AcDbDictionary
280
           0
281
           1
  3
Model
350
39
  3
Paper 1
350
70
  0
DICTIONARY
  5
22
102
{ACAD_REACTORS
330
19
102
}
100
AcDbDictionary
280
           0
281
           1
  0
LAYOUT
  5
39
100
AcDbPlotSettings
  1

  2

  4

  6

 40
0.0
 41
0.0
 42
0.0
 43
0.0
 44
0.0
 45
0.0
 46
0.0
 47
0.0
 48
0.0
 49
0.0
140
0.0
141
0.0
142
1.0
143
1.0
 70
           0
 72
           0
 73
           0
 74
           0
  7

 75
           0
147
1.0
148
0.0
149
0.0
100
AcDbLayout
  1
Model
 70
           0
 71
           0
 10
0.0
 20
0.0
 11
0.0
 21
0.0
 12
0.0
 22
0.0
 32
0.0
 14
0.0
 24
0.0
 34
0.0
 15
0.0
 25
0.0
 35
0.0
146
0.0
 13
0.0
 23
0.0
 33
0.0
 16
0.0
 26
0.0
 36
0.0
 17
0.0
 27
0.0
 37
0.0
 76
           0
330
A
331
0
345
0
346
0
  0
LAYOUT
  5
70
100
AcDbPlotSettings
  1

  2

  4

  6

 40
0.0
 41
0.0
 42
0.0
 43
0.0
 44
256.36366181826
 45
209.55
 46
-64.83040646288
 47
-26.24545919554
 48
0.0
 49
0.0
140
0.0
141
0.0
142
1.0
143
1.0
 70
           0
 72
           0
 73
           0
 74
           0
  7

 75
           0
147
1.0
148
0.0
149
0.0
100
AcDbLayout
  1
Paper 1
 70
           1
 71
           1
 10
64.83040646288
 20
26.24545919554
 11
321.19406828114
 21
235.79545919554
 12
0.0
 22
0.0
 32
0.0
 14
0.0
 24
0.0
 34
0.0
 15
0.0
 25
0.0
 35
0.0
146
0.0
 13
0.0
 23
0.0
 33
0.0
 16
0.0
 26
0.0
 36
0.0
 17
0.0
 27
0.0
 37
0.0
 76
           0
330
B
331
3A
345
0
346
0
  0
ENDSEC
  0
EOF
